  0
SECTION
  2
HEADER
  9
$ACADVER
  1
AC1015
  9
$ACADMAINTVER
 70
     6
  9
$DWGCODEPAGE
  3
ANSI_1252
  9
$INSBASE
 10
0.0
 20
0.0
 30
0.0
  9
$EXTMIN
 10
0.0
 20
0.0
 30
0.0
  9
$EXTMAX
 10
297.0000000000002
 20
210.0000000000002
 30
0.0
  9
$LIMMIN
 10
0.0
 20
0.0
  9
$LIMMAX
 10
12.0
 20
9.0
  9
$ORTHOMODE
 70
     0
  9
$REGENMODE
 70
     1
  9
$FILLMODE
 70
     1
  9
$QTEXTMODE
 70
     0
  9
$MIRRTEXT
 70
     1
  9
$LTSCALE
 40
1.0
  9
$ATTMODE
 70
     1
  9
$TEXTSIZE
 40
0.2
  9
$TRACEWID
 40
0.05
  9
$TEXTSTYLE
  7
Standard
  9
$CLAYER
  8
0
  9
$CELTYPE
  6
ByLayer
  9
$CECOLOR
 62
   256
  9
$CELTSCALE
 40
1.0
  9
$DISPSILH
 70
     0
  9
$DIMSCALE
 40
1.0
  9
$DIMASZ
 40
0.18
  9
$DIMEXO
 40
0.0625
  9
$DIMDLI
 40
0.38
  9
$DIMRND
 40
0.0
  9
$DIMDLE
 40
0.0
  9
$DIMEXE
 40
0.18
  9
$DIMTP
 40
0.0
  9
$DIMTM
 40
0.0
  9
$DIMTXT
 40
0.18
  9
$DIMCEN
 40
0.09
  9
$DIMTSZ
 40
0.0
  9
$DIMTOL
 70
     0
  9
$DIMLIM
 70
     0
  9
$DIMTIH
 70
     1
  9
$DIMTOH
 70
     1
  9
$DIMSE1
 70
     0
  9
$DIMSE2
 70
     0
  9
$DIMTAD
 70
     0
  9
$DIMZIN
 70
     0
  9
$DIMBLK
  1

  9
$DIMASO
 70
     1
  9
$DIMSHO
 70
     1
  9
$DIMPOST
  1

  9
$DIMAPOST
  1

  9
$DIMALT
 70
     0
  9
$DIMALTD
 70
     2
  9
$DIMALTF
 40
25.4
  9
$DIMLFAC
 40
1.0
  9
$DIMTOFL
 70
     0
  9
$DIMTVP
 40
0.0
  9
$DIMTIX
 70
     0
  9
$DIMSOXD
 70
     0
  9
$DIMSAH
 70
     0
  9
$DIMBLK1
  1

  9
$DIMBLK2
  1

  9
$DIMSTYLE
  2
Standard
  9
$DIMCLRD
 70
     0
  9
$DIMCLRE
 70
     0
  9
$DIMCLRT
 70
     0
  9
$DIMTFAC
 40
1.0
  9
$DIMGAP
 40
0.09
  9
$DIMJUST
 70
     0
  9
$DIMSD1
 70
     0
  9
$DIMSD2
 70
     0
  9
$DIMTOLJ
 70
     1
  9
$DIMTZIN
 70
     0
  9
$DIMALTZ
 70
     0
  9
$DIMALTTZ
 70
     0
  9
$DIMUPT
 70
     0
  9
$DIMDEC
 70
     4
  9
$DIMTDEC
 70
     4
  9
$DIMALTU
 70
     2
  9
$DIMALTTD
 70
     2
  9
$DIMTXSTY
  7
Standard
  9
$DIMAUNIT
 70
     0
  9
$DIMADEC
 70
     0
  9
$DIMALTRND
 40
0.0
  9
$DIMAZIN
 70
     0
  9
$DIMDSEP
 70
    46
  9
$DIMATFIT
 70
     3
  9
$DIMFRAC
 70
     0
  9
$DIMLDRBLK
  1

  9
$DIMLUNIT
 70
     2
  9
$DIMLWD
 70
    -2
  9
$DIMLWE
 70
    -2
  9
$DIMTMOVE
 70
     0
  9
$LUNITS
 70
     2
  9
$LUPREC
 70
     4
  9
$SKETCHINC
 40
0.1
  9
$FILLETRAD
 40
0.5
  9
$AUNITS
 70
     0
  9
$AUPREC
 70
     0
  9
$MENU
  1
.
  9
$ELEVATION
 40
0.0
  9
$PELEVATION
 40
0.0
  9
$THICKNESS
 40
0.0
  9
$LIMCHECK
 70
     0
  9
$CHAMFERA
 40
0.5
  9
$CHAMFERB
 40
0.5
  9
$CHAMFERC
 40
1.0
  9
$CHAMFERD
 40
0.0
  9
$SKPOLY
 70
     0
  9
$TDCREATE
 40
2456997.606642859
  9
$TDUCREATE
 40
2456997.564976192
  9
$TDUPDATE
 40
2456997.606643044
  9
$TDUUPDATE
 40
2456997.564976377
  9
$TDINDWG
 40
0.0000000116
  9
$TDUSRTIMER
 40
0.0000000116
  9
$USRTIMER
 70
     1
  9
$ANGBASE
 50
0.0
  9
$ANGDIR
 70
     0
  9
$PDMODE
 70
     0
  9
$PDSIZE
 40
0.0
  9
$PLINEWID
 40
0.0
  9
$SPLFRAME
 70
     0
  9
$SPLINETYPE
 70
     6
  9
$SPLINESEGS
 70
     8
  9
$HANDSEED
  5
287
  9
$SURFTAB1
 70
     6
  9
$SURFTAB2
 70
     6
  9
$SURFTYPE
 70
     6
  9
$SURFU
 70
     6
  9
$SURFV
 70
     6
  9
$UCSBASE
  2

  9
$UCSNAME
  2

  9
$UCSORG
 10
0.0
 20
0.0
 30
0.0
  9
$UCSXDIR
 10
1.0
 20
0.0
 30
0.0
  9
$UCSYDIR
 10
0.0
 20
1.0
 30
0.0
  9
$UCSORTHOREF
  2

  9
$UCSORTHOVIEW
 70
     0
  9
$UCSORGTOP
 10
0.0
 20
0.0
 30
0.0
  9
$UCSORGBOTTOM
 10
0.0
 20
0.0
 30
0.0
  9
$UCSORGLEFT
 10
0.0
 20
0.0
 30
0.0
  9
$UCSORGRIGHT
 10
0.0
 20
0.0
 30
0.0
  9
$UCSORGFRONT
 10
0.0
 20
0.0
 30
0.0
  9
$UCSORGBACK
 10
0.0
 20
0.0
 30
0.0
  9
$PUCSBASE
  2

  9
$PUCSNAME
  2

  9
$PUCSORG
 10
0.0
 20
0.0
 30
0.0
  9
$PUCSXDIR
 10
1.0
 20
0.0
 30
0.0
  9
$PUCSYDIR
 10
0.0
 20
1.0
 30
0.0
  9
$PUCSORTHOREF
  2

  9
$PUCSORTHOVIEW
 70
     0
  9
$PUCSORGTOP
 10
0.0
 20
0.0
 30
0.0
  9
$PUCSORGBOTTOM
 10
0.0
 20
0.0
 30
0.0
  9
$PUCSORGLEFT
 10
0.0
 20
0.0
 30
0.0
  9
$PUCSORGRIGHT
 10
0.0
 20
0.0
 30
0.0
  9
$PUCSORGFRONT
 10
0.0
 20
0.0
 30
0.0
  9
$PUCSORGBACK
 10
0.0
 20
0.0
 30
0.0
  9
$USERI1
 70
     0
  9
$USERI2
 70
     0
  9
$USERI3
 70
     0
  9
$USERI4
 70
     0
  9
$USERI5
 70
     0
  9
$USERR1
 40
18.1
  9
$USERR2
 40
0.0
  9
$USERR3
 40
0.0
  9
$USERR4
 40
0.0
  9
$USERR5
 40
0.0
  9
$WORLDVIEW
 70
     1
  9
$SHADEDGE
 70
     3
  9
$SHADEDIF
 70
    70
  9
$TILEMODE
 70
     1
  9
$MAXACTVP
 70
    64
  9
$PINSBASE
 10
0.0
 20
0.0
 30
0.0
  9
$PLIMCHECK
 70
     0
  9
$PEXTMIN
 10
1.00000000000000E+20
 20
1.00000000000000E+20
 30
1.00000000000000E+20
  9
$PEXTMAX
 10
-1.00000000000000E+20
 20
-1.00000000000000E+20
 30
-1.00000000000000E+20
  9
$PLIMMIN
 10
0.0
 20
0.0
  9
$PLIMMAX
 10
12.0
 20
9.0
  9
$UNITMODE
 70
     0
  9
$VISRETAIN
 70
     1
  9
$PLINEGEN
 70
     0
  9
$PSLTSCALE
 70
     1
  9
$TREEDEPTH
 70
  3020
  9
$CMLSTYLE
  2
Standard
  9
$CMLJUST
 70
     0
  9
$CMLSCALE
 40
1.0
  9
$PROXYGRAPHICS
 70
     1
  9
$MEASUREMENT
 70
     1
  9
$CELWEIGHT
370
    -1
  9
$ENDCAPS
280
     0
  9
$JOINSTYLE
280
     0
  9
$LWDISPLAY
290
     0
  9
$INSUNITS
 70
     4
  9
$HYPERLINKBASE
  1

  9
$STYLESHEET
  1

  9
$XEDIT
290
     1
  9
$CEPSNTYPE
380
     0
  9
$PSTYLEMODE
290
     1
  9
$FINGERPRINTGUID
  2
{A2F0AF85-5319-46CC-AB1B-78C93E62972D}
  9
$VERSIONGUID
  2
{FAEB1C32-E019-11D5-929B-00C0DF256EC4}
  9
$EXTNAMES
290
     1
  9
$PSVPSCALE
 40
0.0
  9
$OLESTARTUP
290
     0
  0
ENDSEC
  0
SECTION
  2
CLASSES
  0
CLASS
  1
ACDBDICTIONARYWDFLT
  2
AcDbDictionaryWithDefault
  3
ObjectDBX Classes
 90
        0
280
     0
281
     0
  0
CLASS
  1
VISUALSTYLE
  2
AcDbVisualStyle
  3
ObjectDBX Classes
 90
     4095
280
     0
281
     0
  0
CLASS
  1
MATERIAL
  2
AcDbMaterial
  3
ObjectDBX Classes
 90
     1153
280
     0
281
     0
  0
CLASS
  1
DICTIONARYVAR
  2
AcDbDictionaryVar
  3
ObjectDBX Classes
 90
        0
280
     0
281
     0
  0
CLASS
  1
ACDBPLACEHOLDER
  2
AcDbPlaceHolder
  3
ObjectDBX Classes
 90
        0
280
     0
281
     0
  0
CLASS
  1
LAYOUT
  2
AcDbLayout
  3
ObjectDBX Classes
 90
        0
280
     0
281
     0
  0
ENDSEC
  0
SECTION
  2
TABLES
  0
TABLE
  2
VPORT
  5
8
330
0
100
AcDbSymbolTable
 70
     1
  0
VPORT
  5
29
330
8
100
AcDbSymbolTableRecord
100
AcDbViewportTableRecord
  2
*Active
 70
     0
 10
0.0
 20
0.0
 11
1.0
 21
1.0
 12
148.5000000000001
 22
105.0000000000001
 13
0.0
 23
0.0
 14
0.5
 24
0.5
 15
0.5
 25
0.5
 16
0.0
 26
0.0
 36
1.0
 17
0.0
 27
0.0
 37
0.0
 40
231.0000000000002
 41
1.60267857142857
 42
50.0
 43
0.0
 44
0.0
 50
0.0
 51
0.0
 71
     0
 72
   100
 73
     1
 74
     3
 75
     0
 76
     0
 77
     0
 78
     0
281
     0
 65
     1
110
0.0
120
0.0
130
0.0
111
1.0
121
0.0
131
0.0
112
0.0
122
1.0
132
0.0
 79
     0
146
0.0
  0
ENDTAB
  0
TABLE
  2
LTYPE
  5
5
330
0
100
AcDbSymbolTable
 70
     8
  0
LTYPE
  5
14
330
5
100
AcDbSymbolTableRecord
100
AcDbLinetypeTableRecord
  2
ByBlock
 70
     0
  3

 72
    65
 73
     0
 40
0.0
  0
LTYPE
  5
15
330
5
100
AcDbSymbolTableRecord
100
AcDbLinetypeTableRecord
  2
ByLayer
 70
     0
  3

 72
    65
 73
     0
 40
0.0
  0
LTYPE
  5
16
330
5
100
AcDbSymbolTableRecord
100
AcDbLinetypeTableRecord
  2
Continuous
 70
     0
  3
Solid line
 72
    65
 73
     0
 40
0.0
  0
LTYPE
  5
3F
330
5
100
AcDbSymbolTableRecord
100
AcDbLinetypeTableRecord
  2
DASHED
 70
     0
  3
Dashed
 72
    65
 73
     2
 40
15.0
 49
7.0
 74
     0
 49
-8.0
 74
     0
  0
LTYPE
  5
40
330
5
100
AcDbSymbolTableRecord
100
AcDbLinetypeTableRecord
  2
DOTTED
 70
     0
  3
Dotted
 72
    65
 73
     2
 40
1.0
 49
0.0
 74
     0
 49
-1.0
 74
     0
  0
LTYPE
  5
41
330
5
100
AcDbSymbolTableRecord
100
AcDbLinetypeTableRecord
  2
DOT_CENTER
 70
     0
  3
Dot_Center
 72
    65
 73
     4
 40
14.0
 49
12.0
 74
     0
 49
-1.0
 74
     0
 49
0.0
 74
     0
 49
-1.0
 74
     0
  0
LTYPE
  5
42
330
5
100
AcDbSymbolTableRecord
100
AcDbLinetypeTableRecord
  2
LONG_DASHED
 70
     0
  3
Long_Dashed
 72
    65
 73
     2
 40
15.0
 49
10.0
 74
     0
 49
-5.0
 74
     0
  0
LTYPE
  5
43
330
5
100
AcDbSymbolTableRecord
100
AcDbLinetypeTableRecord
  2
DASH_CENTER
 70
     0
  3
Dash_Center
 72
    65
 73
     4
 40
14.0
 49
11.0
 74
     0
 49
-1.0
 74
     0
 49
1.0
 74
     0
 49
-1.0
 74
     0
  0
LTYPE
  5
44
330
5
100
AcDbSymbolTableRecord
100
AcDbLinetypeTableRecord
  2
PHANTOM
 70
     0
  3
Phantom
 72
    65
 73
     6
 40
13.0
 49
10.0
 74
     0
 49
-1.0
 74
     0
 49
0.0
 74
     0
 49
-1.0
 74
     0
 49
0.0
 74
     0
 49
-1.0
 74
     0
  0
LTYPE
  5
45
330
5
100
AcDbSymbolTableRecord
100
AcDbLinetypeTableRecord
  2
CENTER_DASH_DASH
 70
     0
  3
Center_Dash_Dash
 72
    65
 73
     6
 40
14.0
 49
9.0
 74
     0
 49
-1.0
 74
     0
 49
1.0
 74
     0
 49
-1.0
 74
     0
 49
1.0
 74
     0
 49
-1.0
 74
     0
  0
ENDTAB
  0
TABLE
  2
LAYER
  5
2
330
0
100
AcDbSymbolTable
 70
     4
  0
LAYER
  5
10
330
2
100
AcDbSymbolTableRecord
100
AcDbLayerTableRecord
  2
0
 70
     0
 62
     7
  6
Continuous
370
    -3
390
F
  0
LAYER
  5
46
330
2
100
AcDbSymbolTableRecord
100
AcDbLayerTableRecord
  2
1
 70
     0
 62
     7
  6
Continuous
370
    -3
390
F
  0
LAYER
  5
47
330
2
100
AcDbSymbolTableRecord
100
AcDbLayerTableRecord
  2
Bemaßungen_TC_020513_DIN_
 70
     0
 62
     7
  6
Continuous
370
    -3
390
F
  0
LAYER
  5
48
330
2
100
AcDbSymbolTableRecord
100
AcDbLayerTableRecord
  2
Sichtbare_Kanten_TC_020513_DIN_
 70
     0
 62
     7
  6
Continuous
370
    -3
390
F
  0
ENDTAB
  0
TABLE
  2
STYLE
  5
3
330
0
100
AcDbSymbolTable
 70
     4
  0
STYLE
  5
11
330
3
100
AcDbSymbolTableRecord
100
AcDbTextStyleTableRecord
  2
Standard
 70
     0
 40
0.0
 41
1.0
 50
0.0
 71
     0
 42
0.2
  3
txt
  4

  0
STYLE
  5
9D
330
3
100
AcDbSymbolTableRecord
100
AcDbTextStyleTableRecord
  2
CONVERTER_11
 70
     0
 40
0.0
 41
1.2
 50
0.0
 71
     0
 42
0.2
  3
ARIAL.TTF
  4

  0
STYLE
  5
A2
330
3
100
AcDbSymbolTableRecord
100
AcDbTextStyleTableRecord
  2
CONVERTER_12
 70
     0
 40
0.0
 41
1.38
 50
0.0
 71
     0
 42
0.2
  3
ARIAL.TTF
  4

  0
STYLE
  5
235
330
3
100
AcDbSymbolTableRecord
100
AcDbTextStyleTableRecord
  2
CONVERTER_13
 70
     0
 40
0.0
 41
0.95
 50
0.0
 71
     0
 42
0.2
  3
simplex.shx
  4

  0
ENDTAB
  0
TABLE
  2
VIEW
  5
6
330
0
100
AcDbSymbolTable
 70
     0
  0
ENDTAB
  0
TABLE
  2
UCS
  5
7
330
0
100
AcDbSymbolTable
 70
     0
  0
ENDTAB
  0
TABLE
  2
APPID
  5
9
330
0
100
AcDbSymbolTable
 70
     1
  0
APPID
  5
12
330
9
100
AcDbSymbolTableRecord
100
AcDbRegAppTableRecord
  2
ACAD
 70
     0
  0
ENDTAB
  0
TABLE
  2
DIMSTYLE
  5
A
330
0
100
AcDbSymbolTable
 70
     5
100
AcDbDimStyleTable
  0
DIMSTYLE
105
27
330
A
100
AcDbSymbolTableRecord
100
AcDbDimStyleTableRecord
  2
Standard
 70
     0
178
     0
340
11
  0
DIMSTYLE
105
239
102
{ACAD_REACTORS
330
23A
102
}
330
A
100
AcDbSymbolTableRecord
100
AcDbDimStyleTableRecord
  2
ME10_DIM_10
 70
     0
 41
3.0
 42
0.5
 44
1.0
 73
     0
 74
     0
 77
     1
 78
     8
140
3.0
147
2.0
172
     1
173
     1
174
     1
175
     1
176
     2
177
     2
271
     2
178
     4
271
     2
340
235
  0
DIMSTYLE
105
244
102
{ACAD_REACTORS
330
245
102
}
330
A
100
AcDbSymbolTableRecord
100
AcDbDimStyleTableRecord
  2
ME10_DIM_11
 70
     0
 41
3.0
 42
0.5
 44
1.0
 73
     0
 74
     0
 77
     1
 78
     8
140
3.0
147
2.0
172
     1
173
     1
174
     1
175
     1
176
     2
177
     2
271
     2
178
     4
271
     2
340
235
  0
DIMSTYLE
105
24F
102
{ACAD_REACTORS
330
250
102
}
330
A
100
AcDbSymbolTableRecord
100
AcDbDimStyleTableRecord
  2
ME10_DIM_12
 70
     0
 41
3.0
 42
0.5
 44
1.0
 73
     0
 74
     0
 77
     1
 78
     8
140
3.0
147
2.0
172
     1
173
     1
174
     1
175
     1
176
     2
177
     2
271
     2
178
     4
271
     2
340
235
  0
DIMSTYLE
105
25A
102
{ACAD_REACTORS
330
25B
102
}
330
A
100
AcDbSymbolTableRecord
100
AcDbDimStyleTableRecord
  2
ME10_DIM_13
 70
     0
 41
3.0
 42
0.5
 44
1.0
 73
     0
 74
     0
 77
     1
 78
     8
140
3.0
147
2.0
172
     1
173
     1
174
     1
175
     1
176
     2
177
     2
271
     2
178
     4
271
     2
340
235
  0
ENDTAB
  0
TABLE
  2
BLOCK_RECORD
  5
1
330
0
100
AcDbSymbolTable
 70
     7
  0
BLOCK_RECORD
  5
1F
330
1
100
AcDbSymbolTableRecord
100
AcDbBlockTableRecord
  2
*Model_Space
340
22
  0
BLOCK_RECORD
  5
1B
330
1
100
AcDbSymbolTableRecord
100
AcDbBlockTableRecord
  2
*Paper_Space
340
1E
  0
BLOCK_RECORD
  5
23
330
1
100
AcDbSymbolTableRecord
100
AcDbBlockTableRecord
  2
*Paper_Space0
340
26
  0
BLOCK_RECORD
  5
49
330
1
100
AcDbSymbolTableRecord
100
AcDbBlockTableRecord
  2
_formato_A4
340
0
102
{BLKREFS
331
4D
102
}
  0
BLOCK_RECORD
  5
4C
330
1
100
AcDbSymbolTableRecord
100
AcDbBlockTableRecord
  2
A4_oriz
340
0
102
{BLKREFS
331
50
102
}
  0
BLOCK_RECORD
  5
22F
330
1
100
AcDbSymbolTableRecord
100
AcDbBlockTableRecord
  2
*D3
340
0
  0
BLOCK_RECORD
  5
23B
330
1
100
AcDbSymbolTableRecord
100
AcDbBlockTableRecord
  2
*D4
340
0
  0
BLOCK_RECORD
  5
246
330
1
100
AcDbSymbolTableRecord
100
AcDbBlockTableRecord
  2
*D5
340
0
  0
BLOCK_RECORD
  5
251
330
1
100
AcDbSymbolTableRecord
100
AcDbBlockTableRecord
  2
*D6
340
0
  0
ENDTAB
  0
ENDSEC
  0
SECTION
  2
BLOCKS
  0
BLOCK
  5
20
330
1F
100
AcDbEntity
  8
0
100
AcDbBlockBegin
  2
*Model_Space
 70
     0
 10
0.0
 20
0.0
 30
0.0
  3
*Model_Space
  1

  0
ENDBLK
  5
21
330
1F
100
AcDbEntity
  8
0
100
AcDbBlockEnd
  0
BLOCK
  5
1C
330
1B
100
AcDbEntity
 67
     1
  8
0
100
AcDbBlockBegin
  2
*Paper_Space
 70
     0
 10
0.0
 20
0.0
 30
0.0
  3
*Paper_Space
  1

  0
ENDBLK
  5
1D
330
1B
100
AcDbEntity
 67
     1
  8
0
100
AcDbBlockEnd
  0
BLOCK
  5
24
330
23
100
AcDbEntity
  8
0
100
AcDbBlockBegin
  2
*Paper_Space0
 70
     0
 10
0.0
 20
0.0
 30
0.0
  3
*Paper_Space0
  1

  0
ENDBLK
  5
25
330
23
100
AcDbEntity
  8
0
100
AcDbBlockEnd
  0
BLOCK
  5
4A
330
49
100
AcDbEntity
  8
0
100
AcDbBlockBegin
  2
_formato_A4
 70
     0
 10
-851.9009473860199
 20
25.56141494573951
 30
0.0
  3
_formato_A4
  1

  0
LINE
  5
51
330
49
100
AcDbEntity
  8
1
  6
Continuous
 62
     7
100
AcDbLine
 10
-1040.90094738602
 20
35.56141494573937
 30
0.0
 11
-1010.90094738602
 21
35.56141494573937
 31
0.0
  0
LINE
  5
52
330
49
100
AcDbEntity
  8
1
  6
Continuous
 62
     7
100
AcDbLine
 10
-1040.90094738602
 20
40.5614149457394
 30
0.0
 11
-1010.90094738602
 21
40.5614149457394
 31
0.0
  0
LINE
  5
53
330
49
100
AcDbEntity
  8
1
  6
Continuous
 62
     7
100
AcDbLine
 10
-900.9009473860199
 20
45.56141494573951
 30
0.0
 11
-900.9009473860199
 21
30.56141494573951
 31
0.0
  0
LINE
  5
54
330
49
100
AcDbEntity
  8
1
  6
Continuous
 62
     7
100
AcDbLine
 10
-883.548346008534
 20
45.5614149457395
 30
0.0
 11
-883.548346008534
 21
30.56141494573951
 31
0.0
  0
LINE
  5
55
330
49
100
AcDbEntity
  8
1
  6
Continuous
 62
     7
100
AcDbLine
 10
-1010.90094738602
 20
45.5614149457395
 30
0.0
 11
-1010.90094738602
 21
30.56141494573951
 31
0.0
  0
LINE
  5
56
330
49
100
AcDbEntity
  8
1
  6
Continuous
 62
     7
100
AcDbLine
 10
-1000.40094738602
 20
235.5614149457397
 30
0.0
 11
-1000.40094738602
 21
220.5614149457397
 31
0.0
  0
LINE
  5
57
330
49
100
AcDbEntity
  8
1
  6
Continuous
 62
     7
100
AcDbLine
 10
-1148.90094738602
 20
25.56141494573951
 30
0.0
 11
-851.9009473860199
 21
25.56141494573951
 31
0.0
  0
LINE
  5
58
330
49
100
AcDbEntity
  8
1
  6
Continuous
 62
     7
100
AcDbLine
 10
-1148.90094738602
 20
235.5614149457397
 30
0.0
 11
-1148.90094738602
 21
25.56141494573951
 31
0.0
  0
LINE
  5
59
330
49
100
AcDbEntity
  8
1
  6
Continuous
 62
     7
100
AcDbLine
 10
-851.9009473860199
 20
235.5614149457397
 30
0.0
 11
-1148.90094738602
 21
235.5614149457397
 31
0.0
  0
LINE
  5
5A
330
49
100
AcDbEntity
  8
1
  6
Continuous
 62
     7
100
AcDbLine
 10
-851.9009473860199
 20
25.56141494573951
 30
0.0
 11
-851.9009473860199
 21
235.5614149457397
 31
0.0
  0
LINE
  5
5B
330
49
100
AcDbEntity
  8
1
  6
Continuous
 62
     7
100
AcDbLine
 10
-1143.90094738602
 20
30.56141494573951
 30
0.0
 11
-856.9009473860199
 21
30.56141494573951
 31
0.0
  0
LINE
  5
5C
330
49
100
AcDbEntity
  8
1
  6
Continuous
 62
     7
100
AcDbLine
 10
-856.9009473860199
 20
30.56141494573951
 30
0.0
 11
-856.9009473860199
 21
214.5614149457396
 31
0.0
  0
LINE
  5
5D
330
49
100
AcDbEntity
  8
1
  6
Continuous
 62
     7
100
AcDbLine
 10
-856.9009473860199
 20
214.5614149457396
 30
0.0
 11
-1143.90094738602
 21
214.5614149457396
 31
0.0
  0
LINE
  5
5E
102
{ACAD_REACTORS
330
AB
102
}
330
49
100
AcDbEntity
  8
1
  6
Continuous
 62
     7
100
AcDbLine
 10
-867.8913133639439
 20
35.63891478557214
 30
0.0
 11
-867.8913133639439
 21
40.48391510590689
 31
0.0
  0
LINE
  5
5F
102
{ACAD_REACTORS
330
A8
102
}
330
49
100
AcDbEntity
  8
1
  6
Continuous
 62
     7
100
AcDbLine
 10
-869.224646697277
 20
38.06141494573951
 30
0.0
 11
-869.224646697277
 21
39.79346575330835
 31
0.0
  0
LINE
  5
60
102
{ACAD_REACTORS
330
A8
102
}
330
49
100
AcDbEntity
  8
1
  6
Continuous
 62
     7
100
AcDbLine
 10
-869.224646697277
 20
39.79346575330835
 30
0.0
 11
-870.0803091299799
 21
38.31141494573951
 31
0.0
  0
LINE
  5
61
102
{ACAD_REACTORS
330
A8
102
}
330
49
100
AcDbEntity
  8
1
  6
Continuous
 62
     7
100
AcDbLine
 10
-870.3689842645749
 20
38.31141494573951
 30
0.0
 11
-871.224646697277
 21
39.79346575330835
 31
0.0
  0
LINE
  5
62
102
{ACAD_REACTORS
330
A8
102
}
330
49
100
AcDbEntity
  8
1
  6
Continuous
 62
     7
100
AcDbLine
 10
-871.224646697277
 20
39.79346575330835
 30
0.0
 11
-871.224646697277
 21
38.06141494573951
 31
0.0
  0
LINE
  5
63
330
49
100
AcDbEntity
  8
1
  6
Continuous
 62
     7
100
AcDbLine
 10
-878.641081972419
 20
38.20577921008085
 30
0.0
 11
-870.224646697277
 21
43.0614149457395
 31
0.0
  0
LINE
  5
64
330
49
100
AcDbEntity
  8
1
  6
Continuous
 62
     7
100
AcDbLine
 10
-870.224646697277
 20
43.0614149457395
 30
0.0
 11
-861.8082114221361
 21
38.20577921008085
 31
0.0
  0
LINE
  5
65
330
49
100
AcDbEntity
  8
1
  6
Continuous
 62
     7
100
AcDbLine
 10
-861.8082114221361
 20
37.91705068139807
 30
0.0
 11
-870.224646697277
 21
33.06141494573951
 31
0.0
  0
LINE
  5
66
330
49
100
AcDbEntity
  8
1
  6
Continuous
 62
     7
100
AcDbLine
 10
-870.224646697277
 20
33.06141494573951
 30
0.0
 11
-878.641081972419
 21
37.91705068139807
 31
0.0
  0
LINE
  5
67
102
{ACAD_REACTORS
330
A8
102
}
330
49
100
AcDbEntity
  8
1
  6
Continuous
 62
     7
100
AcDbLine
 10
-871.8913133639439
 20
38.06141494573951
 30
0.0
 11
-871.8913133639439
 21
41.29263225777409
 31
0.0
  0
LINE
  5
68
102
{ACAD_REACTORS
330
A8
102
}
330
49
100
AcDbEntity
  8
1
  6
Continuous
 62
     7
100
AcDbLine
 10
-871.396879680321
 20
41.4251153640118
 30
0.0
 11
-870.224646697277
 21
39.39474827907277
 31
0.0
  0
LINE
  5
69
102
{ACAD_REACTORS
330
A8
102
}
330
49
100
AcDbEntity
  8
1
  6
Continuous
 62
     7
100
AcDbLine
 10
-871.8913133639439
 20
38.06141494573951
 30
0.0
 11
-871.8913133639439
 21
36.40900001837242
 31
0.0
  0
LINE
  5
6A
102
{ACAD_REACTORS
330
A8
102
}
330
49
100
AcDbEntity
  8
1
  6
Continuous
 62
     7
100
AcDbLine
 10
-871.224646697277
 20
36.40900001837242
 30
0.0
 11
-871.224646697277
 21
38.06141494573951
 31
0.0
  0
LINE
  5
6B
102
{ACAD_REACTORS
330
A8
102
}
330
49
100
AcDbEntity
  8
1
  6
Continuous
 62
     7
100
AcDbLine
 10
-869.224646697277
 20
38.06141494573951
 30
0.0
 11
-869.224646697277
 21
34.86968401634131
 31
0.0
  0
LINE
  5
6C
102
{ACAD_REACTORS
330
A8
102
}
330
49
100
AcDbEntity
  8
1
  6
Continuous
 62
     7
100
AcDbLine
 10
-868.5579800306109
 20
34.86968401634131
 30
0.0
 11
-868.5579800306109
 21
41.29263225777409
 31
0.0
  0
LINE
  5
6D
102
{ACAD_REACTORS
330
A8
102
}
330
49
100
AcDbEntity
  8
1
  6
Continuous
 62
     7
100
AcDbLine
 10
-869.052413714234
 20
41.4251153640118
 30
0.0
 11
-870.224646697277
 21
39.39474827907277
 31
0.0
  0
LINE
  5
6E
102
{ACAD_REACTORS
330
A9
102
}
330
49
100
AcDbEntity
  8
1
  6
Continuous
 62
     7
100
AcDbLine
 10
-873.224646697277
 20
35.8314360937721
 30
0.0
 11
-873.224646697277
 21
40.48391510590689
 31
0.0
  0
LINE
  5
6F
102
{ACAD_REACTORS
330
A9
102
}
330
49
100
AcDbEntity
  8
1
  6
Continuous
 62
     7
100
AcDbLine
 10
-872.5579800306109
 20
40.48391510590689
 30
0.0
 11
-872.5579800306109
 21
35.83143609377221
 31
0.0
  0
LINE
  5
70
102
{ACAD_REACTORS
330
A9
102
}
330
49
100
AcDbEntity
  8
1
  6
Continuous
 62
     7
100
AcDbLine
 10
-872.5579800306109
 20
35.83143609377221
 30
0.0
 11
-870.3914058794469
 21
34.58148946810111
 31
0.0
  0
LINE
  5
71
102
{ACAD_REACTORS
330
A9
102
}
330
49
100
AcDbEntity
  8
1
  6
Continuous
 62
     7
100
AcDbLine
 10
-870.724554181774
 20
34.00403241073532
 30
0.0
 11
-872.8911283329369
 21
35.25397903640642
 31
0.0
  0
LINE
  5
72
102
{ACAD_REACTORS
330
AA
102
}
330
49
100
AcDbEntity
  8
1
  6
Continuous
 62
     7
100
AcDbLine
 10
-873.8913133639439
 20
39.71468433667617
 30
0.0
 11
-873.8913133639439
 21
36.60066686300281
 31
0.0
  0
LINE
  5
73
102
{ACAD_REACTORS
330
AA
102
}
330
49
100
AcDbEntity
  8
1
  6
Continuous
 62
     7
100
AcDbLine
 10
-873.8913133639439
 20
36.60066686300281
 30
0.0
 11
-873.8913133639439
 21
36.40814555480274
 31
0.0
  0
LINE
  5
74
102
{ACAD_REACTORS
330
AA
102
}
330
49
100
AcDbEntity
  8
1
  6
Continuous
 62
     7
100
AcDbLine
 10
-874.5579800306109
 20
36.40814555480274
 30
0.0
 11
-874.5579800306109
 21
39.71468433667617
 31
0.0
  0
LINE
  5
75
102
{ACAD_REACTORS
330
AB
102
}
330
49
100
AcDbEntity
  8
1
  6
Continuous
 62
     7
100
AcDbLine
 10
-867.3914058794469
 20
40.77264363458978
 30
0.0
 11
-866.0580725461141
 21
40.00341286535895
 31
0.0
  0
LINE
  5
76
102
{ACAD_REACTORS
330
AB
102
}
330
49
100
AcDbEntity
  8
1
  6
Continuous
 62
     7
100
AcDbLine
 10
-866.3912208484401
 20
39.42595580799328
 30
0.0
 11
-867.224646697277
 21
39.90677841309146
 31
0.0
  0
LINE
  5
77
102
{ACAD_REACTORS
330
AB
102
}
330
49
100
AcDbEntity
  8
1
  6
Continuous
 62
     7
100
AcDbLine
 10
-867.224646697277
 20
39.90677841309146
 30
0.0
 11
-867.224646697277
 21
38.39474827907277
 31
0.0
  0
LINE
  5
78
102
{ACAD_REACTORS
330
AB
102
}
330
49
100
AcDbEntity
  8
1
  6
Continuous
 62
     7
100
AcDbLine
 10
-867.224646697277
 20
38.39474827907277
 30
0.0
 11
-866.224646697277
 21
38.39474827907277
 31
0.0
  0
LINE
  5
79
102
{ACAD_REACTORS
330
AB
102
}
330
49
100
AcDbEntity
  8
1
  6
Continuous
 62
     7
100
AcDbLine
 10
-866.224646697277
 20
37.72808161240614
 30
0.0
 11
-867.224646697277
 21
37.72808161240614
 31
0.0
  0
LINE
  5
7A
102
{ACAD_REACTORS
330
AB
102
}
330
49
100
AcDbEntity
  8
1
  6
Continuous
 62
     7
100
AcDbLine
 10
-867.224646697277
 20
37.72808161240614
 30
0.0
 11
-867.224646697277
 21
36.21605147838746
 31
0.0
  0
LINE
  5
7B
102
{ACAD_REACTORS
330
AB
102
}
330
49
100
AcDbEntity
  8
1
  6
Continuous
 62
     7
100
AcDbLine
 10
-867.224646697277
 20
36.21605147838746
 30
0.0
 11
-866.3912208484401
 21
36.69687408348575
 31
0.0
  0
LINE
  5
7C
102
{ACAD_REACTORS
330
AB
102
}
330
49
100
AcDbEntity
  8
1
  6
Continuous
 62
     7
100
AcDbLine
 10
-866.0580725461141
 20
36.11941702611985
 30
0.0
 11
-867.3914058794469
 21
35.35018625688925
 31
0.0
  0
LINE
  5
7D
330
49
100
AcDbEntity
  8
1
  6
Continuous
 62
     7
100
AcDbLine
 10
-1040.90094738602
 20
50.5614149457395
 30
0.0
 11
-856.9009473860199
 21
50.56141494573951
 31
0.0
  0
LINE
  5
7E
330
49
100
AcDbEntity
  8
1
  6
Continuous
 62
     7
100
AcDbLine
 10
-1033.90094738602
 20
45.5614149457395
 30
0.0
 11
-1033.90094738602
 21
50.56141494573951
 31
0.0
  0
LINE
  5
7F
330
49
100
AcDbEntity
  8
1
  6
Continuous
 62
     7
100
AcDbLine
 10
-1015.90094738602
 20
45.5614149457395
 30
0.0
 11
-1015.90094738602
 21
50.5614149457395
 31
0.0
  0
LINE
  5
80
330
49
100
AcDbEntity
  8
1
  6
Continuous
 62
     7
100
AcDbLine
 10
-1040.90094738602
 20
55.5614149457395
 30
0.0
 11
-856.9009473860199
 21
55.56141494573951
 31
0.0
  0
LINE
  5
81
330
49
100
AcDbEntity
  8
1
  6
Continuous
 62
     7
100
AcDbLine
 10
-1033.90094738602
 20
50.56141494573951
 30
0.0
 11
-1033.90094738602
 21
55.5614149457395
 31
0.0
  0
LINE
  5
82
330
49
100
AcDbEntity
  8
1
  6
Continuous
 62
     7
100
AcDbLine
 10
-1015.90094738602
 20
50.5614149457395
 30
0.0
 11
-1015.90094738602
 21
55.56141494573951
 31
0.0
  0
LINE
  5
83
330
49
100
AcDbEntity
  8
1
  6
Continuous
 62
     7
100
AcDbLine
 10
-1040.90094738602
 20
60.5614149457395
 30
0.0
 11
-856.9009473860199
 21
60.5614149457395
 31
0.0
  0
LINE
  5
84
330
49
100
AcDbEntity
  8
1
  6
Continuous
 62
     7
100
AcDbLine
 10
-1033.90094738602
 20
55.5614149457395
 30
0.0
 11
-1033.90094738602
 21
60.5614149457395
 31
0.0
  0
LINE
  5
85
330
49
100
AcDbEntity
  8
1
  6
Continuous
 62
     7
100
AcDbLine
 10
-1015.90094738602
 20
55.56141494573951
 30
0.0
 11
-1015.90094738602
 21
60.56141494573951
 31
0.0
  0
LINE
  5
86
330
49
100
AcDbEntity
  8
1
  6
Continuous
 62
     7
100
AcDbLine
 10
-1040.90094738602
 20
65.56141494573951
 30
0.0
 11
-856.9009473860199
 21
65.56141494573951
 31
0.0
  0
LINE
  5
87
330
49
100
AcDbEntity
  8
1
  6
Continuous
 62
     7
100
AcDbLine
 10
-1033.90094738602
 20
60.5614149457395
 30
0.0
 11
-1033.90094738602
 21
65.56141494573951
 31
0.0
  0
LINE
  5
88
330
49
100
AcDbEntity
  8
1
  6
Continuous
 62
     7
100
AcDbLine
 10
-1015.90094738602
 20
60.56141494573951
 30
0.0
 11
-1015.90094738602
 21
65.56141494573951
 31
0.0
  0
LINE
  5
89
330
49
100
AcDbEntity
  8
1
  6
Continuous
 62
     7
100
AcDbLine
 10
-1143.90094738602
 20
214.5614149457396
 30
0.0
 11
-1143.90094738602
 21
30.56141494573951
 31
0.0
  0
LINE
  5
8A
330
49
100
AcDbEntity
  8
1
  6
Continuous
 62
     7
100
AcDbLine
 10
-1040.90094738602
 20
45.5614149457395
 30
0.0
 11
-856.9009473860199
 21
45.5614149457395
 31
0.0
  0
LINE
  5
8B
330
49
100
AcDbEntity
  8
1
  6
Continuous
 62
     7
100
AcDbLine
 10
-1040.90094738602
 20
30.5614149457394
 30
0.0
 11
-1040.90094738602
 21
65.56141494573951
 31
0.0
  0
ARC
  5
8C
102
{ACAD_REACTORS
330
A8
102
}
330
49
100
AcDbEntity
  8
1
  6
Continuous
 62
     7
100
AcDbCircle
 10
-871.626347151469
 20
41.29263225777409
 30
0.0
 40
0.264966212475135
100
AcDbArc
 50
30.00000000003666
 51
180.0
  0
ARC
  5
8D
102
{ACAD_REACTORS
330
A8
102
}
330
49
100
AcDbEntity
  8
1
  6
Continuous
 62
     7
100
AcDbCircle
 10
-871.5579800306109
 20
36.40900001837242
 30
0.0
 40
0.3333333333330302
100
AcDbArc
 50
180.0
 51
0.0
  0
ARC
  5
8E
102
{ACAD_REACTORS
330
A8
102
}
330
49
100
AcDbEntity
  8
1
  6
Continuous
 62
     7
100
AcDbCircle
 10
-868.8913133639439
 20
34.86968401634131
 30
0.0
 40
0.3333333333330302
100
AcDbArc
 50
180.0
 51
0.0
  0
ARC
  5
8F
102
{ACAD_REACTORS
330
A8
102
}
330
49
100
AcDbEntity
  8
1
  6
Continuous
 62
     7
100
AcDbCircle
 10
-868.8229462430859
 20
41.29263225777409
 30
0.0
 40
0.2649662124749739
100
AcDbArc
 50
0.0
 51
149.9999999999879
  0
ARC
  5
90
102
{ACAD_REACTORS
330
A9
102
}
330
49
100
AcDbEntity
  8
1
  6
Continuous
 62
     7
100
AcDbCircle
 10
-872.8913133639439
 20
40.48391510590689
 30
0.0
 40
0.3333333333330302
100
AcDbArc
 50
0.0
 51
180.0
  0
ARC
  5
91
102
{ACAD_REACTORS
330
A9
102
}
330
49
100
AcDbEntity
  8
1
  6
Continuous
 62
     7
100
AcDbCircle
 10
-870.5579800306109
 20
34.29276093941822
 30
0.0
 40
0.3333333333333202
100
AcDbArc
 50
240.0183606311669
 51
60.01836063103026
  0
ARC
  5
92
102
{ACAD_REACTORS
330
AA
102
}
330
49
100
AcDbEntity
  8
1
  6
Continuous
 62
     7
100
AcDbCircle
 10
-874.224646697277
 20
39.71468433667617
 30
0.0
 40
0.3333333333330302
100
AcDbArc
 50
0.0
 51
180.0
  0
ARC
  5
93
102
{ACAD_REACTORS
330
AA
102
}
330
49
100
AcDbEntity
  8
1
  6
Continuous
 62
     7
100
AcDbCircle
 10
-874.224646697277
 20
36.40814555480274
 30
0.0
 40
0.3333333333339397
100
AcDbArc
 50
180.0
 51
0.0
  0
ARC
  5
94
102
{ACAD_REACTORS
330
AB
102
}
330
49
100
AcDbEntity
  8
1
  6
Continuous
 62
     7
100
AcDbCircle
 10
-866.224646697277
 20
39.71468433667617
 30
0.0
 40
0.3333333333333079
100
AcDbArc
 50
240.0183606311657
 51
60.01836063119038
  0
ARC
  5
95
102
{ACAD_REACTORS
330
AB
102
}
330
49
100
AcDbEntity
  8
1
  6
Continuous
 62
     7
100
AcDbCircle
 10
-866.224646697277
 20
38.06141494573951
 30
0.0
 40
0.3333333333333641
100
AcDbArc
 50
270.0
 51
90.0
  0
ARC
  5
96
102
{ACAD_REACTORS
330
AB
102
}
330
49
100
AcDbEntity
  8
1
  6
Continuous
 62
     7
100
AcDbCircle
 10
-866.224646697277
 20
36.40814555480274
 30
0.0
 40
0.3333333333332005
100
AcDbArc
 50
299.9816393687998
 51
119.9816393688239
  0
ARC
  5
97
102
{ACAD_REACTORS
330
A8
102
}
330
49
100
AcDbEntity
  8
1
  6
Continuous
 62
     7
100
AcDbCircle
 10
-870.224646697277
 20
38.39474827907277
 30
0.0
 40
0.1666666666671054
100
AcDbArc
 50
209.9999999998856
 51
329.999999999958
  0
ARC
  5
98
102
{ACAD_REACTORS
330
A9
102
}
330
49
100
AcDbEntity
  8
1
  6
Continuous
 62
     7
100
AcDbCircle
 10
-872.5579800306109
 20
35.83143609377221
 30
0.0
 40
0.6666666666660603
100
AcDbArc
 50
180.0000000000097
 51
240.0183606311832
  0
ARC
  5
99
330
49
100
AcDbEntity
  8
1
  6
Continuous
 62
     7
100
AcDbCircle
 10
-878.5577948968371
 20
38.06141494573951
 30
0.0
 40
0.1666666666667352
100
AcDbArc
 50
119.9816393689536
 51
240.0183606310635
  0
ARC
  5
9A
330
49
100
AcDbEntity
  8
1
  6
Continuous
 62
     7
100
AcDbCircle
 10
-861.8914984977171
 20
38.06141494573951
 30
0.0
 40
0.1666666666663668
100
AcDbArc
 50
299.9816393686656
 51
60.01836063131725
  0
ARC
  5
9B
102
{ACAD_REACTORS
330
AB
102
}
330
49
100
AcDbEntity
  8
1
  6
Continuous
 62
     7
100
AcDbCircle
 10
-867.5579800306109
 20
40.48391510590689
 30
0.0
 40
0.3333333333337624
100
AcDbArc
 50
60.01836063103026
 51
180.0
  0
ARC
  5
9C
102
{ACAD_REACTORS
330
AB
102
}
330
49
100
AcDbEntity
  8
1
  6
Continuous
 62
     7
100
AcDbCircle
 10
-867.5579800306109
 20
35.63891478557214
 30
0.0
 40
0.3333333333330302
100
AcDbArc
 50
180.0
 51
299.9816393689698
  0
MTEXT
  5
9E
330
49
100
AcDbEntity
  8
1
 62
     7
100
AcDbMText
 10
-1029.30094738602
 20
33.06141494573939
 30
0.0
 40
3.0
 41
0.0
 71
     4
 72
     1
  1
Pezzimenti
  7
CONVERTER_11
 73
     1
 44
1.32052821128451
  0
MTEXT
  5
9F
330
49
100
AcDbEntity
  8
1
 62
     7
100
AcDbMText
 10
-1039.90094738602
 20
33.06141494573939
 30
0.0
 40
3.0
 41
0.0
 71
     4
 72
     1
  1
Sign.
  7
CONVERTER_11
 73
     1
 44
1.32052821128451
  0
MTEXT
  5
A0
330
49
100
AcDbEntity
  8
1
 62
     7
100
AcDbMText
 10
-1029.30094738602
 20
38.06141494573939
 30
0.0
 40
3.0
 41
0.0
 71
     4
 72
     1
  1
20/06/14
  7
CONVERTER_11
 73
     1
 44
1.32052821128451
  0
MTEXT
  5
A1
330
49
100
AcDbEntity
  8
1
 62
     7
100
AcDbMText
 10
-1039.90094738602
 20
38.06141494573939
 30
0.0
 40
3.0
 41
0.0
 71
     4
 72
     1
  1
Date
  7
CONVERTER_11
 73
     1
 44
1.32052821128451
  0
MTEXT
  5
A3
330
49
100
AcDbEntity
  8
1
 62
     7
100
AcDbMText
 10
-1025.90094738602
 20
43.06141494573946
 30
0.0
 40
2.5
 41
0.0
 71
     5
 72
     1
  1
dimensions in mm
  7
CONVERTER_12
 73
     1
 44
0.60024009603842
  0
MTEXT
  5
A4
330
49
100
AcDbEntity
  8
1
 62
     7
100
AcDbMText
 10
-997.40094738602
 20
219.5614149457397
 30
0.0
 40
4.0
 41
0.0
 71
     5
 72
     1
  1
Diritti riservati      All rights reserved
  7
CONVERTER_11
 73
     1
 44
1.32052821128451
  0
MTEXT
  5
A5
330
49
100
AcDbEntity
  8
1
 62
     7
100
AcDbMText
 10
-1009.624646697277
 20
38.06141494573951
 30
0.0
 40
4.5
 41
0.0
 71
     4
 72
     1
  1
MHON 10.25\PHood with pegs, side entry, M25 - LS TYPE
  7
CONVERTER_11
 73
     1
 44
0.90036014405762
  0
MTEXT
  5
A6
330
49
100
AcDbEntity
  8
1
 62
     7
100
AcDbMText
 10
-892.224646697277
 20
41.82205436649549
 30
0.0
 40
3.0
 41
0.0
 71
     5
 72
     1
  1
Scale
  7
CONVERTER_11
 73
     1
 44
1.32052821128451
  0
MTEXT
  5
A7
330
49
100
AcDbEntity
  8
1
 62
     7
100
AcDbMText
 10
-892.224646697277
 20
35.62205436649556
 30
0.0
 40
4.5
 41
0.0
 71
     5
 72
     1
  1
1:1
  7
CONVERTER_11
 73
     1
 44
1.32052821128451
  0
HATCH
  5
A8
330
49
100
AcDbEntity
  8
1
  6
Continuous
 62
     7
100
AcDbHatch
 10
0.0
 20
0.0
 30
0.0
210
0.0
220
0.0
230
1.0
  2
SOLID
 70
     1
 71
     1
 91
        1
 92
        1
 93
       16
 72
     2
 10
-871.626347151469
 20
41.29263225777409
 40
0.264966212475135
 50
30.00000000003666
 51
180.0
 73
     1
 72
     1
 10
-871.8913133639439
 20
41.29263225777409
 11
-871.8913133639439
 21
38.06141494573951
 72
     1
 10
-871.8913133639439
 20
38.06141494573951
 11
-871.8913133639439
 21
36.40900001837242
 72
     2
 10
-871.5579800306109
 20
36.40900001837242
 40
0.3333333333330302
 50
180.0
 51
360.0
 73
     1
 72
     1
 10
-871.224646697277
 20
36.40900001837242
 11
-871.224646697277
 21
38.06141494573951
 72
     1
 10
-871.224646697277
 20
38.06141494573951
 11
-871.224646697277
 21
39.79346575330835
 72
     1
 10
-871.224646697277
 20
39.79346575330835
 11
-870.3689842645749
 21
38.31141494573951
 72
     2
 10
-870.224646697277
 20
38.39474827907277
 40
0.1666666666671054
 50
209.9999999998856
 51
329.999999999958
 73
     1
 72
     1
 10
-870.0803091299799
 20
38.31141494573951
 11
-869.224646697277
 21
39.79346575330835
 72
     1
 10
-869.224646697277
 20
39.79346575330835
 11
-869.224646697277
 21
38.06141494573951
 72
     1
 10
-869.224646697277
 20
38.06141494573951
 11
-869.224646697277
 21
34.86968401634131
 72
     2
 10
-868.8913133639439
 20
34.86968401634131
 40
0.3333333333330302
 50
180.0
 51
360.0
 73
     1
 72
     1
 10
-868.5579800306109
 20
34.86968401634131
 11
-868.5579800306109
 21
41.29263225777409
 72
     2
 10
-868.8229462430859
 20
41.29263225777409
 40
0.2649662124749739
 50
0.0
 51
149.9999999999879
 73
     1
 72
     1
 10
-869.052413714234
 20
41.4251153640118
 11
-870.224646697277
 21
39.39474827907277
 72
     1
 10
-870.224646697277
 20
39.39474827907277
 11
-871.396879680321
 21
41.4251153640118
 97
       16
330
6D
330
8F
330
6C
330
8E
330
6B
330
5F
330
60
330
97
330
61
330
62
330
6A
330
8D
330
69
330
67
330
8C
330
68
 75
     0
 76
     1
 98
        1
 10
0.0
 20
0.0
  0
HATCH
  5
A9
330
49
100
AcDbEntity
  8
1
  6
Continuous
 62
     7
100
AcDbHatch
 10
0.0
 20
0.0
 30
0.0
210
0.0
220
0.0
230
1.0
  2
SOLID
 70
     1
 71
     1
 91
        1
 92
        1
 93
        7
 72
     1
 10
-872.5579800306109
 20
40.48391510590689
 11
-872.5579800306109
 21
35.83143609377221
 72
     1
 10
-872.5579800306109
 20
35.83143609377221
 11
-870.3914058794469
 21
34.58148946810111
 72
     2
 10
-870.5579800306109
 20
34.29276093941822
 40
0.3333333333333202
 50
299.9816393689698
 51
479.9816393688332
 73
     0
 72
     1
 10
-870.724554181774
 20
34.00403241073532
 11
-872.8911283329369
 21
35.25397903640642
 72
     2
 10
-872.5579800306109
 20
35.83143609377221
 40
0.6666666666660603
 50
119.9816393688168
 51
179.9999999999902
 73
     0
 72
     1
 10
-873.224646697277
 20
35.8314360937721
 11
-873.224646697277
 21
40.48391510590689
 72
     2
 10
-872.8913133639439
 20
40.48391510590689
 40
0.3333333333330302
 50
180.0
 51
360.0
 73
     0
 97
        7
330
6F
330
70
330
91
330
71
330
98
330
6E
330
90
 75
     0
 76
     1
 98
        1
 10
0.0
 20
0.0
  0
HATCH
  5
AA
330
49
100
AcDbEntity
  8
1
  6
Continuous
 62
     7
100
AcDbHatch
 10
0.0
 20
0.0
 30
0.0
210
0.0
220
0.0
230
1.0
  2
SOLID
 70
     1
 71
     1
 91
        1
 92
        1
 93
        5
 72
     1
 10
-873.8913133639439
 20
39.71468433667617
 11
-873.8913133639439
 21
36.60066686300281
 72
     1
 10
-873.8913133639439
 20
36.60066686300281
 11
-873.8913133639439
 21
36.40814555480274
 72
     2
 10
-874.224646697277
 20
36.40814555480274
 40
0.3333333333339397
 50
0.0
 51
180.0
 73
     0
 72
     1
 10
-874.5579800306109
 20
36.40814555480274
 11
-874.5579800306109
 21
39.71468433667617
 72
     2
 10
-874.224646697277
 20
39.71468433667617
 40
0.3333333333330302
 50
180.0
 51
360.0
 73
     0
 97
        5
330
72
330
73
330
93
330
74
330
92
 75
     0
 76
     1
 98
        1
 10
0.0
 20
0.0
  0
HATCH
  5
AB
330
49
100
AcDbEntity
  8
1
  6
Continuous
 62
     7
100
AcDbHatch
 10
0.0
 20
0.0
 30
0.0
210
0.0
220
0.0
230
1.0
  2
SOLID
 70
     1
 71
     1
 91
        1
 92
        1
 93
       14
 72
     1
 10
-866.3912208484401
 20
39.42595580799328
 11
-867.224646697277
 21
39.90677841309146
 72
     1
 10
-867.224646697277
 20
39.90677841309146
 11
-867.224646697277
 21
38.39474827907277
 72
     1
 10
-867.224646697277
 20
38.39474827907277
 11
-866.224646697277
 21
38.39474827907277
 72
     2
 10
-866.224646697277
 20
38.06141494573951
 40
0.3333333333333641
 50
270.0
 51
450.0
 73
     0
 72
     1
 10
-866.224646697277
 20
37.72808161240614
 11
-867.224646697277
 21
37.72808161240614
 72
     1
 10
-867.224646697277
 20
37.72808161240614
 11
-867.224646697277
 21
36.21605147838746
 72
     1
 10
-867.224646697277
 20
36.21605147838746
 11
-866.3912208484401
 21
36.69687408348575
 72
     2
 10
-866.224646697277
 20
36.40814555480274
 40
0.3333333333332005
 50
240.0183606311761
 51
420.0183606312001
 73
     0
 72
     1
 10
-866.0580725461141
 20
36.11941702611985
 11
-867.3914058794469
 21
35.35018625688925
 72
     2
 10
-867.5579800306109
 20
35.63891478557214
 40
0.3333333333330302
 50
60.01836063103026
 51
180.0
 73
     0
 72
     1
 10
-867.8913133639439
 20
35.63891478557214
 11
-867.8913133639439
 21
40.48391510590689
 72
     2
 10
-867.5579800306109
 20
40.48391510590689
 40
0.3333333333337624
 50
180.0
 51
299.9816393689698
 73
     0
 72
     1
 10
-867.3914058794469
 20
40.77264363458978
 11
-866.0580725461141
 21
40.00341286535895
 72
     2
 10
-866.224646697277
 20
39.71468433667617
 40
0.3333333333333079
 50
299.9816393688097
 51
479.9816393688344
 73
     0
 97
       14
330
75
330
9B
330
5E
330
9C
330
7C
330
96
330
7B
330
7A
330
79
330
95
330
78
330
77
330
76
330
94
 75
     0
 76
     1
 98
        1
 10
0.0
 20
0.0
  0
ENDBLK
  5
4B
330
49
100
AcDbEntity
  8
0
100
AcDbBlockEnd
  0
BLOCK
  5
4E
330
4C
100
AcDbEntity
  8
0
100
AcDbBlockBegin
  2
A4_oriz
 70
     0
 10
297.0000000000002
 20
0.0
 30
0.0
  3
A4_oriz
  1

  0
INSERT
  5
4D
330
4C
100
AcDbEntity
  8
1
100
AcDbBlockReference
  2
_formato_A4
 10
297.0000000000002
 20
0.0
 30
0.0
  0
ENDBLK
  5
4F
330
4C
100
AcDbEntity
  8
0
100
AcDbBlockEnd
  0
BLOCK
  5
237
330
22F
100
AcDbEntity
  8
0
100
AcDbBlockBegin
  2
*D3
 70
     1
 10
0.0
 20
0.0
 30
0.0
  3
*D3
  1

  0
LINE
  5
230
330
22F
100
AcDbEntity
  8
1
  6
Continuous
 62
     2
100
AcDbLine
 10
156.9717356733245
 20
124.9364754350527
 30
0.0
 11
149.4589222141219
 21
148.7809258239799
 31
0.0
  0
LINE
  5
231
330
22F
100
AcDbEntity
  8
1
  6
Continuous
 62
     2
100
AcDbLine
 10
141.1351645606421
 20
146.1583097640499
 30
0.0
 11
150.4127000920124
 21
149.0814383189725
 31
0.0
  0
LINE
  5
232
330
22F
100
AcDbEntity
  8
1
  6
Continuous
 62
     2
100
AcDbLine
 10
148.6479780198447
 20
122.3138593751227
 30
0.0
 11
157.925513551215
 21
125.2369879300453
 31
0.0
  0
SOLID
  5
233
330
22F
100
AcDbEntity
  8
1
 62
     2
100
AcDbTrace
 10
155.6934964690429
 20
127.6791194071581
 30
0.0
 11
156.4468999076502
 21
127.9164987302901
 31
0.0
 12
156.9717356733245
 22
124.9364754350527
 32
0.0
 13
156.9717356733245
 23
124.9364754350527
 33
0.0
  0
SOLID
  5
234
330
22F
100
AcDbEntity
  8
1
 62
     2
100
AcDbTrace
 10
150.7371614184036
 20
146.0382818518744
 30
0.0
 11
149.9837579797962
 21
145.8009025287424
 31
0.0
 12
149.4589222141219
 22
148.7809258239799
 32
0.0
 13
149.4589222141219
 23
148.7809258239799
 33
0.0
  0
MTEXT
  5
236
330
22F
100
AcDbEntity
  8
1
 62
     4
100
AcDbMText
 10
153.9508859690328
 20
141.1794593432745
 30
0.0
 40
3.0
 41
0.0
 71
     7
 72
     1
  1
M25
  7
CONVERTER_13
 11
0.3005124949926661
 21
-0.9537778778904882
 31
0.0
 73
     1
 44
0.60024009603842
  0
ENDBLK
  5
238
330
22F
100
AcDbEntity
  8
0
100
AcDbBlockEnd
  0
BLOCK
  5
242
330
23B
100
AcDbEntity
  8
0
100
AcDbBlockBegin
  2
*D4
 70
     1
 10
0.0
 20
0.0
 30
0.0
  3
*D4
  1

  0
LINE
  5
23C
330
23B
100
AcDbEntity
  8
1
  6
Continuous
 62
     2
100
AcDbLine
 10
255.386695585433
 20
92.97941542479171
 30
0.0
 11
255.386695585433
 21
144.9794154247917
 31
0.0
  0
LINE
  5
23D
330
23B
100
AcDbEntity
  8
1
  6
Continuous
 62
     2
100
AcDbLine
 10
231.107440963754
 20
144.9794154247917
 30
0.0
 11
256.386695585433
 21
144.9794154247917
 31
0.0
  0
LINE
  5
23E
330
23B
100
AcDbEntity
  8
1
  6
Continuous
 62
     2
100
AcDbLine
 10
231.107440963753
 20
92.97941542479171
 30
0.0
 11
256.386695585433
 21
92.97941542479171
 31
0.0
  0
SOLID
  5
23F
330
23B
100
AcDbEntity
  8
1
 62
     2
100
AcDbTrace
 10
254.9917380926708
 20
95.97941542479171
 30
0.0
 11
255.7816530781952
 21
95.97941542479171
 31
0.0
 12
255.386695585433
 22
92.97941542479171
 32
0.0
 13
255.386695585433
 23
92.97941542479171
 33
0.0
  0
SOLID
  5
240
330
23B
100
AcDbEntity
  8
1
 62
     2
100
AcDbTrace
 10
255.7816530781952
 20
141.9794154247917
 30
0.0
 11
254.9917380926708
 21
141.9794154247917
 31
0.0
 12
255.386695585433
 22
144.9794154247917
 32
0.0
 13
255.386695585433
 23
144.9794154247917
 33
0.0
  0
MTEXT
  5
241
330
23B
100
AcDbEntity
  8
1
 62
     4
100
AcDbMText
 10
253.386695585433
 20
116.7294154247917
 30
0.0
 40
3.0
 41
0.0
 71
     7
 72
     1
  1
52
  7
CONVERTER_13
 11
0.0
 21
1.0
 31
0.0
 73
     1
 44
0.60024009603842
  0
ENDBLK
  5
243
330
23B
100
AcDbEntity
  8
0
100
AcDbBlockEnd
  0
BLOCK
  5
24D
330
246
100
AcDbEntity
  8
0
100
AcDbBlockBegin
  2
*D5
 70
     1
 10
0.0
 20
0.0
 30
0.0
  3
*D5
  1

  0
LINE
  5
247
330
246
100
AcDbEntity
  8
1
  6
Continuous
 62
     2
100
AcDbLine
 10
193.607440963754
 20
75.2420423362333
 30
0.0
 11
236.607440963754
 21
75.2420423362333
 31
0.0
  0
LINE
  5
248
330
246
100
AcDbEntity
  8
1
  6
Continuous
 62
     2
100
AcDbLine
 10
236.607440963754
 20
92.47941542479175
 30
0.0
 11
236.607440963754
 21
74.2420423362333
 31
0.0
  0
LINE
  5
249
330
246
100
AcDbEntity
  8
1
  6
Continuous
 62
     2
100
AcDbLine
 10
193.607440963754
 20
92.47941542479175
 30
0.0
 11
193.607440963754
 21
74.2420423362333
 31
0.0
  0
SOLID
  5
24A
330
246
100
AcDbEntity
  8
1
 62
     2
100
AcDbTrace
 10
196.607440963754
 20
75.63699982899549
 30
0.0
 11
196.607440963754
 21
74.84708484347111
 31
0.0
 12
193.607440963754
 22
75.2420423362333
 32
0.0
 13
193.607440963754
 23
75.2420423362333
 33
0.0
  0
SOLID
  5
24B
330
246
100
AcDbEntity
  8
1
 62
     2
100
AcDbTrace
 10
233.607440963754
 20
74.84708484347111
 30
0.0
 11
233.607440963754
 21
75.63699982899549
 31
0.0
 12
236.607440963754
 22
75.2420423362333
 32
0.0
 13
236.607440963754
 23
75.2420423362333
 33
0.0
  0
MTEXT
  5
24C
330
246
100
AcDbEntity
  8
1
 62
     4
100
AcDbMText
 10
212.857440963754
 20
77.2420423362333
 30
0.0
 40
3.0
 41
0.0
 71
     7
 72
     1
  1
43
  7
CONVERTER_13
 11
0.9999999999970619
 21
2.424068405545306E-6
 31
0.0
 73
     1
 44
0.60024009603842
  0
ENDBLK
  5
24E
330
246
100
AcDbEntity
  8
0
100
AcDbBlockEnd
  0
BLOCK
  5
258
330
251
100
AcDbEntity
  8
0
100
AcDbBlockBegin
  2
*D6
 70
     1
 10
0.0
 20
0.0
 30
0.0
  3
*D6
  1

  0
LINE
  5
252
330
251
100
AcDbEntity
  8
1
  6
Continuous
 62
     2
100
AcDbLine
 10
65.05408162235526
 20
75.2420423362333
 30
0.0
 11
138.0540816223551
 21
75.2420423362333
 31
0.0
  0
LINE
  5
253
330
251
100
AcDbEntity
  8
1
  6
Continuous
 62
     2
100
AcDbLine
 10
138.0540816223551
 20
92.47941542479175
 30
0.0
 11
138.0540816223551
 21
74.2420423362333
 31
0.0
  0
LINE
  5
254
330
251
100
AcDbEntity
  8
1
  6
Continuous
 62
     2
100
AcDbLine
 10
65.05408162235526
 20
92.47941542479175
 30
0.0
 11
65.05408162235526
 21
74.2420423362333
 31
0.0
  0
SOLID
  5
255
330
251
100
AcDbEntity
  8
1
 62
     2
100
AcDbTrace
 10
68.05408162235526
 20
75.63699982899549
 30
0.0
 11
68.05408162235526
 21
74.84708484347111
 31
0.0
 12
65.05408162235526
 22
75.2420423362333
 32
0.0
 13
65.05408162235526
 23
75.2420423362333
 33
0.0
  0
SOLID
  5
256
330
251
100
AcDbEntity
  8
1
 62
     2
100
AcDbTrace
 10
135.0540816223551
 20
74.84708484347111
 30
0.0
 11
135.0540816223551
 21
75.63699982899549
 31
0.0
 12
138.0540816223551
 22
75.2420423362333
 32
0.0
 13
138.0540816223551
 23
75.2420423362333
 33
0.0
  0
MTEXT
  5
257
330
251
100
AcDbEntity
  8
1
 62
     4
100
AcDbMText
 10
99.3040816223552
 20
77.2420423362333
 30
0.0
 40
3.0
 41
0.0
 71
     7
 72
     1
  1
73
  7
CONVERTER_13
 11
0.9999999999970619
 21
2.424068405545306E-6
 31
0.0
 73
     1
 44
0.60024009603842
  0
ENDBLK
  5
259
330
251
100
AcDbEntity
  8
0
100
AcDbBlockEnd
  0
ENDSEC
  0
SECTION
  2
ENTITIES
  0
INSERT
  5
50
330
1F
100
AcDbEntity
  8
0
100
AcDbBlockReference
  2
A4_oriz
 10
297.0000000000002
 20
0.0
 30
0.0
  0
POINT
  5
AC
330
1F
100
AcDbEntity
  8
Bemaßungen_TC_020513_DIN_
 62
     7
100
AcDbPoint
 10
230.607440963754
 20
144.9794154247917
 30
0.0
  0
POINT
  5
AD
330
1F
100
AcDbEntity
  8
Bemaßungen_TC_020513_DIN_
 62
     7
100
AcDbPoint
 10
230.607440963753
 20
92.97941542479175
 30
0.0
  0
POINT
  5
AE
330
1F
100
AcDbEntity
  8
Bemaßungen_TC_020513_DIN_
 62
     7
100
AcDbPoint
 10
236.607440963754
 20
92.97941542479175
 30
0.0
  0
POINT
  5
AF
330
1F
100
AcDbEntity
  8
Bemaßungen_TC_020513_DIN_
 62
     7
100
AcDbPoint
 10
193.607440963754
 20
92.97941542479175
 30
0.0
  0
POINT
  5
B0
330
1F
100
AcDbEntity
  8
Bemaßungen_TC_020513_DIN_
 62
     7
100
AcDbPoint
 10
65.05408162235523
 20
92.97941542479175
 30
0.0
  0
POINT
  5
B1
330
1F
100
AcDbEntity
  8
Bemaßungen_TC_020513_DIN_
 62
     7
100
AcDbPoint
 10
138.0540816223551
 20
92.97941542479175
 30
0.0
  0
LINE
  5
B2
330
1F
100
AcDbEntity
  8
1
  6
DOT_CENTER
 62
     2
100
AcDbLine
 10
115.0540816223551
 20
105.8794154247918
 30
0.0
 11
115.0540816223551
 21
93.07941542479175
 31
0.0
  0
LINE
  5
B3
330
1F
100
AcDbEntity
  8
1
  6
DOT_CENTER
 62
     2
100
AcDbLine
 10
121.454081622355
 20
99.47941542479175
 30
0.0
 11
108.6540816223551
 21
99.47941542479175
 31
0.0
  0
LINE
  5
B4
330
1F
100
AcDbEntity
  8
1
  6
DOT_CENTER
 62
     2
100
AcDbLine
 10
88.05408162235523
 20
105.8794154247918
 30
0.0
 11
88.05408162235523
 21
93.07941542479175
 31
0.0
  0
LINE
  5
B5
330
1F
100
AcDbEntity
  8
1
  6
DOT_CENTER
 62
     2
100
AcDbLine
 10
94.4540816223552
 20
99.47941542479175
 30
0.0
 11
81.65408162235525
 21
99.47941542479175
 31
0.0
  0
LWPOLYLINE
  5
B6
330
1F
100
AcDbEntity
  8
Sichtbare_Kanten_TC_020513_DIN_
  6
Continuous
 62
     7
100
AcDbPolyline
 90
        2
 70
     0
 43
0.5
 10
147.7974128379417
 20
122.0460873858256
 10
147.1860973555071
 20
123.9899467295828
  0
LINE
  5
B7
330
1F
100
AcDbEntity
  8
1
  6
Continuous
 62
     2
100
AcDbLine
 10
147.7974128379417
 20
122.0460873858256
 30
0.0
 11
148.1710890808995
 21
122.1636031276264
 31
0.0
  0
LWPOLYLINE
  5
B8
330
1F
100
AcDbEntity
  8
Sichtbare_Kanten_TC_020513_DIN_
  6
Continuous
 62
     7
100
AcDbPolyline
 90
        2
 70
     0
 43
0.5
 10
140.2974128379419
 20
145.8945674212493
 10
139.547412837942
 20
148.2794154247918
  0
LINE
  5
B9
330
1F
100
AcDbEntity
  8
1
  6
Continuous
 62
     2
100
AcDbLine
 10
140.2974128379419
 20
145.8945674212493
 30
0.0
 11
140.6582756216969
 21
146.0080535165536
 31
0.0
  0
LWPOLYLINE
  5
BA
330
1F
100
AcDbEntity
  8
Sichtbare_Kanten_TC_020513_DIN_
  6
Continuous
 62
     7
100
AcDbPolyline
 90
        2
 70
     0
 43
0.5
 10
141.0726582448281
 20
143.4294441400918
 10
140.2974128379419
 20
145.8945674212493
  0
LWPOLYLINE
  5
BB
330
1F
100
AcDbEntity
  8
Sichtbare_Kanten_TC_020513_DIN_
  6
Continuous
 62
     7
100
AcDbPolyline
 90
        2
 70
     0
 43
0.5
 10
141.886737178056
 20
140.8408381152437
 10
141.0726582448281
 20
143.4294441400918
  0
LWPOLYLINE
  5
BC
330
1F
100
AcDbEntity
  8
Sichtbare_Kanten_TC_020513_DIN_
  6
Continuous
 62
     7
100
AcDbPolyline
 90
        2
 70
     0
 43
0.5
 10
143.163426531779
 20
136.7812247067527
 10
141.886737178056
 20
140.8408381152437
  0
LWPOLYLINE
  5
BD
330
1F
100
AcDbEntity
  8
Sichtbare_Kanten_TC_020513_DIN_
  6
Continuous
 62
     7
100
AcDbPolyline
 90
        2
 70
     0
 43
0.5
 10
147.1860973555071
 20
123.9899467295828
 10
143.163426531779
 20
136.7812247067527
  0
LWPOLYLINE
  5
BE
330
1F
100
AcDbEntity
  8
Sichtbare_Kanten_TC_020513_DIN_
  6
Continuous
 62
     7
100
AcDbPolyline
 90
        2
 70
     0
 43
0.5
 10
148.547412837942
 20
119.6612393822838
 10
147.7974128379417
 20
122.0460873858256
  0
LWPOLYLINE
  5
BF
330
1F
100
AcDbEntity
  8
Sichtbare_Kanten_TC_020513_DIN_
  6
Continuous
 62
     7
100
AcDbPolyline
 90
        2
 70
     0
 43
0.5
 10
129.0540816223551
 20
144.9794154247917
 10
129.997537975405
 20
141.9794154247917
  0
LWPOLYLINE
  5
C0
330
1F
100
AcDbEntity
  8
Sichtbare_Kanten_TC_020513_DIN_
  6
Continuous
 62
     7
100
AcDbPolyline
 90
        2
 70
     0
 43
0.5
 10
129.997537975405
 20
141.9794154247917
 10
132.0540816223551
 20
135.4400234106217
  0
LWPOLYLINE
  5
C1
330
1F
100
AcDbEntity
  8
Sichtbare_Kanten_TC_020513_DIN_
  6
Continuous
 62
     7
100
AcDbPolyline
 90
        2
 70
     0
 43
0.5
 10
132.0540816223551
 20
135.4400234106217
 10
135.16936484425
 20
125.5340541143497
  0
LWPOLYLINE
  5
C2
330
1F
100
AcDbEntity
  8
Sichtbare_Kanten_TC_020513_DIN_
  6
Continuous
 62
     7
100
AcDbPolyline
 90
        2
 70
     0
 43
0.5
 10
135.16936484425
 20
125.5340541143497
 10
138.0540816223551
 20
116.3612393822837
  0
LWPOLYLINE
  5
C3
330
1F
100
AcDbEntity
  8
Sichtbare_Kanten_TC_020513_DIN_
  6
Continuous
 62
     7
100
AcDbPolyline
 90
        2
 70
     0
 43
0.5
 10
129.0540816223551
 20
144.9794154247917
 10
139.547412837942
 20
148.2794154247918
  0
LWPOLYLINE
  5
C4
330
1F
100
AcDbEntity
  8
Sichtbare_Kanten_TC_020513_DIN_
  6
Continuous
 62
     7
100
AcDbPolyline
 90
        2
 70
     0
 43
0.5
 10
148.547412837942
 20
119.6612393822838
 10
138.0540816223551
 20
116.3612393822837
  0
LWPOLYLINE
  5
C5
330
1F
100
AcDbEntity
  8
Sichtbare_Kanten_TC_020513_DIN_
  6
Continuous
 62
     7
100
AcDbPolyline
 90
        2
 70
     0
 43
0.5
 10
129.0540816223551
 20
144.9794154247917
 10
71.05408162235523
 20
144.9794154247917
  0
LWPOLYLINE
  5
C6
330
1F
100
AcDbEntity
  8
Sichtbare_Kanten_TC_020513_DIN_
  6
Continuous
 62
     7
100
AcDbPolyline
 90
        2
 70
     0
 43
0.5
 10
68.05408162235523
 20
144.9794154247917
 10
71.05408162235523
 20
144.9794154247917
  0
LWPOLYLINE
  5
C7
330
1F
100
AcDbEntity
  8
Sichtbare_Kanten_TC_020513_DIN_
  6
Continuous
 62
     7
100
AcDbPolyline
 90
        2
 70
     0
 43
0.5
 10
65.05408162235523
 20
105.2294154247918
 10
65.05408162235523
 20
92.97941542479175
  0
LWPOLYLINE
  5
C8
330
1F
100
AcDbEntity
  8
Sichtbare_Kanten_TC_020513_DIN_
  6
Continuous
 62
     7
100
AcDbPolyline
 90
        2
 70
     0
 43
0.5
 10
65.05408162235523
 20
107.7294154247918
 10
65.05408162235523
 20
106.7294154247918
  0
LWPOLYLINE
  5
C9
330
1F
100
AcDbEntity
  8
Sichtbare_Kanten_TC_020513_DIN_
  6
Continuous
 62
     7
100
AcDbPolyline
 90
        2
 70
     0
 43
0.5
 10
65.05408162235523
 20
110.2294154247918
 10
65.05408162235523
 20
109.2294154247918
  0
LWPOLYLINE
  5
CA
330
1F
100
AcDbEntity
  8
Sichtbare_Kanten_TC_020513_DIN_
  6
Continuous
 62
     7
100
AcDbPolyline
 90
        2
 70
     0
 43
0.5
 10
65.05408162235523
 20
112.7294154247918
 10
65.05408162235523
 20
111.7294154247918
  0
LWPOLYLINE
  5
CB
330
1F
100
AcDbEntity
  8
Sichtbare_Kanten_TC_020513_DIN_
  6
Continuous
 62
     7
100
AcDbPolyline
 90
        2
 70
     0
 43
0.5
 10
65.05408162235523
 20
141.9794154247917
 10
65.05408162235523
 20
114.2294154247918
  0
LWPOLYLINE
  5
CC
330
1F
100
AcDbEntity
  8
Sichtbare_Kanten_TC_020513_DIN_
  6
Continuous
 62
     7
100
AcDbPolyline
 90
        2
 70
     0
 43
0.5
 10
138.0540816223551
 20
114.2294154247918
 10
138.0540816223551
 20
116.3612393822837
  0
LWPOLYLINE
  5
CD
330
1F
100
AcDbEntity
  8
Sichtbare_Kanten_TC_020513_DIN_
  6
Continuous
 62
     7
100
AcDbPolyline
 90
        2
 70
     0
 43
0.5
 10
138.0540816223551
 20
111.7294154247918
 10
138.0540816223551
 20
112.7294154247918
  0
LWPOLYLINE
  5
CE
330
1F
100
AcDbEntity
  8
Sichtbare_Kanten_TC_020513_DIN_
  6
Continuous
 62
     7
100
AcDbPolyline
 90
        2
 70
     0
 43
0.5
 10
138.0540816223551
 20
109.2294154247918
 10
138.0540816223551
 20
110.2294154247918
  0
LWPOLYLINE
  5
CF
330
1F
100
AcDbEntity
  8
Sichtbare_Kanten_TC_020513_DIN_
  6
Continuous
 62
     7
100
AcDbPolyline
 90
        2
 70
     0
 43
0.5
 10
138.0540816223551
 20
106.7294154247918
 10
138.0540816223551
 20
107.7294154247918
  0
LWPOLYLINE
  5
D0
330
1F
100
AcDbEntity
  8
Sichtbare_Kanten_TC_020513_DIN_
  6
Continuous
 62
     7
100
AcDbPolyline
 90
        2
 70
     0
 43
0.5
 10
138.0540816223551
 20
92.97941542479175
 10
138.0540816223551
 20
105.2294154247918
  0
LWPOLYLINE
  5
D1
330
1F
100
AcDbEntity
  8
Sichtbare_Kanten_TC_020513_DIN_
  6
Continuous
 62
     7
100
AcDbPolyline
 90
        2
 70
     0
 43
0.5
 10
71.05408162235523
 20
112.7294154247918
 10
65.05408162235523
 20
112.7294154247918
  0
LWPOLYLINE
  5
D2
330
1F
100
AcDbEntity
  8
Sichtbare_Kanten_TC_020513_DIN_
  6
Continuous
 62
     7
100
AcDbPolyline
 90
        2
 70
     0
 43
0.5
 10
138.0540816223551
 20
112.7294154247918
 10
132.0540816223551
 20
112.7294154247918
  0
LWPOLYLINE
  5
D3
330
1F
100
AcDbEntity
  8
Sichtbare_Kanten_TC_020513_DIN_
  6
Continuous
 62
     7
100
AcDbPolyline
 90
        2
 70
     0
 43
0.5
 10
132.0540816223551
 20
111.7294154247918
 10
138.0540816223551
 20
111.7294154247918
  0
LWPOLYLINE
  5
D4
330
1F
100
AcDbEntity
  8
Sichtbare_Kanten_TC_020513_DIN_
  6
Continuous
 62
     7
100
AcDbPolyline
 90
        2
 70
     0
 43
0.5
 10
65.05408162235523
 20
111.7294154247918
 10
71.05408162235523
 20
111.7294154247918
  0
LWPOLYLINE
  5
D5
330
1F
100
AcDbEntity
  8
Sichtbare_Kanten_TC_020513_DIN_
  6
Continuous
 62
     7
100
AcDbPolyline
 90
        2
 70
     0
 43
0.5
 10
65.05408162235523
 20
114.2294154247918
 10
71.05408162235523
 20
114.2294154247918
  0
LWPOLYLINE
  5
D6
330
1F
100
AcDbEntity
  8
Sichtbare_Kanten_TC_020513_DIN_
  6
Continuous
 62
     7
100
AcDbPolyline
 90
        2
 70
     0
 43
0.5
 10
132.0540816223551
 20
114.2294154247918
 10
138.0540816223551
 20
114.2294154247918
  0
LWPOLYLINE
  5
D7
330
1F
100
AcDbEntity
  8
Sichtbare_Kanten_TC_020513_DIN_
  6
Continuous
 62
     7
100
AcDbPolyline
 90
        2
 70
     0
 43
0.5
 10
71.05408162235523
 20
110.2294154247918
 10
65.05408162235523
 20
110.2294154247918
  0
LWPOLYLINE
  5
D8
330
1F
100
AcDbEntity
  8
Sichtbare_Kanten_TC_020513_DIN_
  6
Continuous
 62
     7
100
AcDbPolyline
 90
        2
 70
     0
 43
0.5
 10
138.0540816223551
 20
110.2294154247918
 10
132.0540816223551
 20
110.2294154247918
  0
LWPOLYLINE
  5
D9
330
1F
100
AcDbEntity
  8
Sichtbare_Kanten_TC_020513_DIN_
  6
Continuous
 62
     7
100
AcDbPolyline
 90
        2
 70
     0
 43
0.5
 10
132.0540816223551
 20
109.2294154247918
 10
138.0540816223551
 20
109.2294154247918
  0
LWPOLYLINE
  5
DA
330
1F
100
AcDbEntity
  8
Sichtbare_Kanten_TC_020513_DIN_
  6
Continuous
 62
     7
100
AcDbPolyline
 90
        2
 70
     0
 43
0.5
 10
65.05408162235523
 20
109.2294154247918
 10
71.05408162235523
 20
109.2294154247918
  0
LWPOLYLINE
  5
DB
330
1F
100
AcDbEntity
  8
Sichtbare_Kanten_TC_020513_DIN_
  6
Continuous
 62
     7
100
AcDbPolyline
 90
        2
 70
     0
 43
0.5
 10
71.05408162235523
 20
107.7294154247918
 10
65.05408162235523
 20
107.7294154247918
  0
LWPOLYLINE
  5
DC
330
1F
100
AcDbEntity
  8
Sichtbare_Kanten_TC_020513_DIN_
  6
Continuous
 62
     7
100
AcDbPolyline
 90
        2
 70
     0
 43
0.5
 10
138.0540816223551
 20
107.7294154247918
 10
132.0540816223551
 20
107.7294154247918
  0
LWPOLYLINE
  5
DD
330
1F
100
AcDbEntity
  8
Sichtbare_Kanten_TC_020513_DIN_
  6
Continuous
 62
     7
100
AcDbPolyline
 90
        2
 70
     0
 43
0.5
 10
132.0540816223551
 20
106.7294154247918
 10
138.0540816223551
 20
106.7294154247918
  0
LWPOLYLINE
  5
DE
330
1F
100
AcDbEntity
  8
Sichtbare_Kanten_TC_020513_DIN_
  6
Continuous
 62
     7
100
AcDbPolyline
 90
        2
 70
     0
 43
0.5
 10
65.05408162235523
 20
106.7294154247918
 10
71.05408162235523
 20
106.7294154247918
  0
LWPOLYLINE
  5
DF
330
1F
100
AcDbEntity
  8
Sichtbare_Kanten_TC_020513_DIN_
  6
Continuous
 62
     7
100
AcDbPolyline
 90
        2
 70
     0
 43
0.5
 10
71.05408162235523
 20
105.2294154247918
 10
65.05408162235523
 20
105.2294154247918
  0
LWPOLYLINE
  5
E0
330
1F
100
AcDbEntity
  8
Sichtbare_Kanten_TC_020513_DIN_
  6
Continuous
 62
     7
100
AcDbPolyline
 90
        2
 70
     0
 43
0.5
 10
138.0540816223551
 20
105.2294154247918
 10
132.0540816223551
 20
105.2294154247918
  0
LWPOLYLINE
  5
E1
330
1F
100
AcDbEntity
  8
Sichtbare_Kanten_TC_020513_DIN_
  6
Continuous
 62
     7
100
AcDbPolyline
 90
        2
 70
     0
 43
0.5
 10
138.0540816223551
 20
92.97941542479175
 10
132.0540816223551
 20
92.97941542479175
  0
LWPOLYLINE
  5
E2
330
1F
100
AcDbEntity
  8
Sichtbare_Kanten_TC_020513_DIN_
  6
Continuous
 62
     7
100
AcDbPolyline
 90
        2
 70
     0
 43
0.5
 10
71.05408162235523
 20
92.97941542479175
 10
65.05408162235523
 20
92.97941542479175
  0
LWPOLYLINE
  5
E3
330
1F
100
AcDbEntity
  8
Sichtbare_Kanten_TC_020513_DIN_
  6
Continuous
 62
     7
100
AcDbPolyline
 90
        2
 70
     0
 43
0.5
 10
65.05408162235523
 20
106.7294154247918
 10
65.05408162235523
 20
105.2294154247918
  0
LWPOLYLINE
  5
E4
330
1F
100
AcDbEntity
  8
Sichtbare_Kanten_TC_020513_DIN_
  6
Continuous
 62
     7
100
AcDbPolyline
 90
        2
 70
     0
 43
0.5
 10
65.05408162235523
 20
109.2294154247918
 10
65.05408162235523
 20
107.7294154247918
  0
LWPOLYLINE
  5
E5
330
1F
100
AcDbEntity
  8
Sichtbare_Kanten_TC_020513_DIN_
  6
Continuous
 62
     7
100
AcDbPolyline
 90
        2
 70
     0
 43
0.5
 10
65.05408162235523
 20
111.7294154247918
 10
65.05408162235523
 20
110.2294154247918
  0
LWPOLYLINE
  5
E6
330
1F
100
AcDbEntity
  8
Sichtbare_Kanten_TC_020513_DIN_
  6
Continuous
 62
     7
100
AcDbPolyline
 90
        2
 70
     0
 43
0.5
 10
65.05408162235523
 20
114.2294154247918
 10
65.05408162235523
 20
112.7294154247918
  0
LWPOLYLINE
  5
E7
330
1F
100
AcDbEntity
  8
Sichtbare_Kanten_TC_020513_DIN_
  6
Continuous
 62
     7
100
AcDbPolyline
 90
        2
 70
     0
 43
0.5
 10
138.0540816223551
 20
112.7294154247918
 10
138.0540816223551
 20
114.2294154247918
  0
LWPOLYLINE
  5
E8
330
1F
100
AcDbEntity
  8
Sichtbare_Kanten_TC_020513_DIN_
  6
Continuous
 62
     7
100
AcDbPolyline
 90
        2
 70
     0
 43
0.5
 10
138.0540816223551
 20
110.2294154247918
 10
138.0540816223551
 20
111.7294154247918
  0
LWPOLYLINE
  5
E9
330
1F
100
AcDbEntity
  8
Sichtbare_Kanten_TC_020513_DIN_
  6
Continuous
 62
     7
100
AcDbPolyline
 90
        2
 70
     0
 43
0.5
 10
138.0540816223551
 20
107.7294154247918
 10
138.0540816223551
 20
109.2294154247918
  0
LWPOLYLINE
  5
EA
330
1F
100
AcDbEntity
  8
Sichtbare_Kanten_TC_020513_DIN_
  6
Continuous
 62
     7
100
AcDbPolyline
 90
        2
 70
     0
 43
0.5
 10
138.0540816223551
 20
105.2294154247918
 10
138.0540816223551
 20
106.7294154247918
  0
LWPOLYLINE
  5
EB
330
1F
100
AcDbEntity
  8
Sichtbare_Kanten_TC_020513_DIN_
  6
Continuous
 62
     7
100
AcDbPolyline
 90
        2
 70
     0
 43
0.5
 10
71.05408162235523
 20
112.7294154247918
 10
132.0540816223551
 20
112.7294154247918
  0
LWPOLYLINE
  5
EC
330
1F
100
AcDbEntity
  8
Sichtbare_Kanten_TC_020513_DIN_
  6
Continuous
 62
     7
100
AcDbPolyline
 90
        2
 70
     0
 43
0.5
 10
132.0540816223551
 20
111.7294154247918
 10
71.05408162235523
 20
111.7294154247918
  0
LWPOLYLINE
  5
ED
330
1F
100
AcDbEntity
  8
Sichtbare_Kanten_TC_020513_DIN_
  6
Continuous
 62
     7
100
AcDbPolyline
 90
        2
 70
     0
 43
0.5
 10
132.0540816223551
 20
114.2294154247918
 10
71.05408162235523
 20
114.2294154247918
  0
LWPOLYLINE
  5
EE
330
1F
100
AcDbEntity
  8
Sichtbare_Kanten_TC_020513_DIN_
  6
Continuous
 62
     7
100
AcDbPolyline
 90
        2
 70
     0
 43
0.5
 10
101.5540816223552
 20
128.2308257025597
 10
95.05363701732915
 20
131.9794154247917
  0
LWPOLYLINE
  5
EF
330
1F
100
AcDbEntity
  8
Sichtbare_Kanten_TC_020513_DIN_
  6
Continuous
 62
     7
100
AcDbPolyline
 90
        2
 70
     0
 43
0.5
 10
95.05363701732915
 20
131.9794154247917
 10
101.5540816223552
 20
135.7280051470237
  0
LWPOLYLINE
  5
F0
330
1F
100
AcDbEntity
  8
Sichtbare_Kanten_TC_020513_DIN_
  6
Continuous
 62
     7
100
AcDbPolyline
 90
        2
 70
     0
 43
0.5
 10
101.5540816223552
 20
135.7280051470237
 10
108.0545262273813
 20
131.9794154247917
  0
LWPOLYLINE
  5
F1
330
1F
100
AcDbEntity
  8
Sichtbare_Kanten_TC_020513_DIN_
  6
Continuous
 62
     7
100
AcDbPolyline
 90
        2
 70
     0
 43
0.5
 10
108.0545262273813
 20
131.9794154247917
 10
101.5540816223552
 20
128.2308257025597
  0
LWPOLYLINE
  5
F2
330
1F
100
AcDbEntity
  8
Sichtbare_Kanten_TC_020513_DIN_
  6
Continuous
 62
     7
100
AcDbPolyline
 90
        2
 70
     0
 43
0.5
 10
71.05408162235523
 20
110.2294154247918
 10
132.0540816223551
 20
110.2294154247918
  0
LWPOLYLINE
  5
F3
330
1F
100
AcDbEntity
  8
Sichtbare_Kanten_TC_020513_DIN_
  6
Continuous
 62
     7
100
AcDbPolyline
 90
        2
 70
     0
 43
0.5
 10
132.0540816223551
 20
109.2294154247918
 10
71.05408162235523
 20
109.2294154247918
  0
LWPOLYLINE
  5
F4
330
1F
100
AcDbEntity
  8
Sichtbare_Kanten_TC_020513_DIN_
  6
Continuous
 62
     7
100
AcDbPolyline
 90
        2
 70
     0
 43
0.5
 10
71.05408162235523
 20
107.7294154247918
 10
132.0540816223551
 20
107.7294154247918
  0
LWPOLYLINE
  5
F5
330
1F
100
AcDbEntity
  8
Sichtbare_Kanten_TC_020513_DIN_
  6
Continuous
 62
     7
100
AcDbPolyline
 90
        2
 70
     0
 43
0.5
 10
132.0540816223551
 20
106.7294154247918
 10
71.05408162235523
 20
106.7294154247918
  0
LWPOLYLINE
  5
F6
330
1F
100
AcDbEntity
  8
Sichtbare_Kanten_TC_020513_DIN_
  6
Continuous
 62
     7
100
AcDbPolyline
 90
        2
 70
     0
 43
0.5
 10
71.05408162235523
 20
105.2294154247918
 10
132.0540816223551
 20
105.2294154247918
  0
LWPOLYLINE
  5
F7
330
1F
100
AcDbEntity
  8
Sichtbare_Kanten_TC_020513_DIN_
  6
Continuous
 62
     7
100
AcDbPolyline
 90
        2
 70
     0
 43
0.5
 10
132.0540816223551
 20
92.97941542479175
 10
71.05408162235523
 20
92.97941542479175
  0
LWPOLYLINE
  5
F8
330
1F
100
AcDbEntity
  8
Sichtbare_Kanten_TC_020513_DIN_
  6
Continuous
 62
     7
100
AcDbPolyline
 90
        2
 70
     0
 43
0.5
 10
103.3040816223552
 20
130.4230820359277
 10
103.3040816223552
 20
133.5357488136557
  0
LWPOLYLINE
  5
F9
330
1F
100
AcDbEntity
  8
Sichtbare_Kanten_TC_020513_DIN_
  6
Continuous
 62
     7
100
AcDbPolyline
 90
        2
 70
     0
 43
0.5
 10
104.6789705698477
 20
130.7831782734168
 10
103.6789705698477
 20
130.2065116067498
  0
LWPOLYLINE
  5
FA
330
1F
100
AcDbEntity
  8
Sichtbare_Kanten_TC_020513_DIN_
  6
Continuous
 62
     7
100
AcDbPolyline
 90
        2
 70
     0
 43
0.5
 10
103.8040816223552
 20
130.8558384248258
 10
104.4291926748628
 20
131.2163191317717
  0
LWPOLYLINE
  5
FB
330
1F
100
AcDbEntity
  8
Sichtbare_Kanten_TC_020513_DIN_
  6
Continuous
 62
     7
100
AcDbPolyline
 90
        2
 70
     0
 43
0.5
 10
103.8040816223552
 20
131.7294154247917
 10
103.8040816223552
 20
130.8558384248258
  0
LWPOLYLINE
  5
FC
330
1F
100
AcDbEntity
  8
Sichtbare_Kanten_TC_020513_DIN_
  6
Continuous
 62
     7
100
AcDbPolyline
 90
        2
 70
     0
 43
0.5
 10
104.5540816223552
 20
131.7294154247917
 10
103.8040816223552
 20
131.7294154247917
  0
LWPOLYLINE
  5
FD
330
1F
100
AcDbEntity
  8
Sichtbare_Kanten_TC_020513_DIN_
  6
Continuous
 62
     7
100
AcDbPolyline
 90
        2
 70
     0
 43
0.5
 10
103.8040816223552
 20
132.2294154247917
 10
104.5540816223552
 20
132.2294154247917
  0
LWPOLYLINE
  5
FE
330
1F
100
AcDbEntity
  8
Sichtbare_Kanten_TC_020513_DIN_
  6
Continuous
 62
     7
100
AcDbPolyline
 90
        2
 70
     0
 43
0.5
 10
103.8040816223552
 20
133.1029924247578
 10
103.8040816223552
 20
132.2294154247917
  0
LWPOLYLINE
  5
FF
330
1F
100
AcDbEntity
  8
Sichtbare_Kanten_TC_020513_DIN_
  6
Continuous
 62
     7
100
AcDbPolyline
 90
        2
 70
     0
 43
0.5
 10
104.4291926748628
 20
132.7425117178117
 10
103.8040816223552
 20
133.1029924247578
  0
LWPOLYLINE
  5
100
330
1F
100
AcDbEntity
  8
Sichtbare_Kanten_TC_020513_DIN_
  6
Continuous
 62
     7
100
AcDbPolyline
 90
        2
 70
     0
 43
0.5
 10
103.6789705698477
 20
133.7523192428338
 10
104.6789705698477
 20
133.1756525761668
  0
LWPOLYLINE
  5
101
330
1F
100
AcDbEntity
  8
Sichtbare_Kanten_TC_020513_DIN_
  6
Continuous
 62
     7
100
AcDbPolyline
 90
        2
 70
     0
 43
0.5
 10
98.80408162235523
 20
132.9694154247918
 10
98.80408162235523
 20
130.9894154247918
  0
LWPOLYLINE
  5
102
330
1F
100
AcDbEntity
  8
Sichtbare_Kanten_TC_020513_DIN_
  6
Continuous
 62
     7
100
AcDbPolyline
 90
        2
 70
     0
 43
0.5
 10
98.30408162235523
 20
130.9894154247918
 10
98.30408162235511
 20
132.9694154247918
  0
LWPOLYLINE
  5
103
330
1F
100
AcDbEntity
  8
Sichtbare_Kanten_TC_020513_DIN_
  6
Continuous
 62
     7
100
AcDbPolyline
 90
        2
 70
     0
 43
0.5
 10
95.55408162235523
 20
131.9794154247917
 10
101.5540816223552
 20
128.5194154247918
  0
LWPOLYLINE
  5
104
330
1F
100
AcDbEntity
  8
Sichtbare_Kanten_TC_020513_DIN_
  6
Continuous
 62
     7
100
AcDbPolyline
 90
        2
 70
     0
 43
0.5
 10
101.5540816223552
 20
128.5194154247918
 10
107.5540816223552
 20
131.9794154247917
  0
LWPOLYLINE
  5
105
330
1F
100
AcDbEntity
  8
Sichtbare_Kanten_TC_020513_DIN_
  6
Continuous
 62
     7
100
AcDbPolyline
 90
        2
 70
     0
 43
0.5
 10
107.5540816223552
 20
131.9794154247917
 10
101.5540816223552
 20
135.4394154247918
  0
LWPOLYLINE
  5
106
330
1F
100
AcDbEntity
  8
Sichtbare_Kanten_TC_020513_DIN_
  6
Continuous
 62
     7
100
AcDbPolyline
 90
        2
 70
     0
 43
0.5
 10
101.5540816223552
 20
135.4394154247918
 10
95.55408162235523
 20
131.9794154247917
  0
LWPOLYLINE
  5
107
330
1F
100
AcDbEntity
  8
Sichtbare_Kanten_TC_020513_DIN_
  6
Continuous
 62
     7
100
AcDbPolyline
 90
        2
 70
     0
 43
0.5
 10
101.4291926748628
 20
129.0531782734168
 10
99.42919267486275
 20
130.2065116067498
  0
LWPOLYLINE
  5
108
330
1F
100
AcDbEntity
  8
Sichtbare_Kanten_TC_020513_DIN_
  6
Continuous
 62
     7
100
AcDbPolyline
 90
        2
 70
     0
 43
0.5
 10
99.80408162235523
 20
130.5675050914927
 10
101.6789705698477
 20
129.4863191317718
  0
LWPOLYLINE
  5
109
330
1F
100
AcDbEntity
  8
Sichtbare_Kanten_TC_020513_DIN_
  6
Continuous
 62
     7
100
AcDbPolyline
 90
        2
 70
     0
 43
0.5
 10
99.80408162235523
 20
133.5357488136557
 10
99.80408162235523
 20
130.5675050914927
  0
LWPOLYLINE
  5
10A
330
1F
100
AcDbEntity
  8
Sichtbare_Kanten_TC_020513_DIN_
  6
Continuous
 62
     7
100
AcDbPolyline
 90
        2
 70
     0
 43
0.5
 10
99.30408162235523
 20
130.4230820359277
 10
99.30408162235523
 20
133.5357488136557
  0
LWPOLYLINE
  5
10B
330
1F
100
AcDbEntity
  8
Sichtbare_Kanten_TC_020513_DIN_
  6
Continuous
 62
     7
100
AcDbPolyline
 90
        2
 70
     0
 43
0.5
 10
100.8040816223551
 20
133.3596464520568
 10
100.8040816223552
 20
130.9894154247918
  0
LWPOLYLINE
  5
10C
330
1F
100
AcDbEntity
  8
Sichtbare_Kanten_TC_020513_DIN_
  6
Continuous
 62
     7
100
AcDbPolyline
 90
        2
 70
     0
 43
0.5
 10
101.5540816223552
 20
132.3550331025718
 10
100.8040816223551
 20
133.3596464520568
  0
LWPOLYLINE
  5
10D
330
1F
100
AcDbEntity
  8
Sichtbare_Kanten_TC_020513_DIN_
  6
Continuous
 62
     7
100
AcDbPolyline
 90
        2
 70
     0
 43
0.5
 10
102.3040816223552
 20
133.3596464520568
 10
101.5540816223552
 20
132.3550331025718
  0
LWPOLYLINE
  5
10E
330
1F
100
AcDbEntity
  8
Sichtbare_Kanten_TC_020513_DIN_
  6
Continuous
 62
     7
100
AcDbPolyline
 90
        2
 70
     0
 43
0.5
 10
102.3040816223552
 20
129.8464153692607
 10
102.3040816223552
 20
133.3596464520568
  0
LWPOLYLINE
  5
10F
330
1F
100
AcDbEntity
  8
Sichtbare_Kanten_TC_020513_DIN_
  6
Continuous
 62
     7
100
AcDbPolyline
 90
        2
 70
     0
 43
0.5
 10
102.8040816223552
 20
134.1124154803227
 10
102.8040816223552
 20
129.8464153692607
  0
LWPOLYLINE
  5
110
330
1F
100
AcDbEntity
  8
Sichtbare_Kanten_TC_020513_DIN_
  6
Continuous
 62
     7
100
AcDbPolyline
 90
        2
 70
     0
 43
0.5
 10
101.5540816223552
 20
133.1908289261137
 10
102.3537509273083
 20
134.2619735380198
  0
LWPOLYLINE
  5
111
330
1F
100
AcDbEntity
  8
Sichtbare_Kanten_TC_020513_DIN_
  6
Continuous
 62
     7
100
AcDbPolyline
 90
        2
 70
     0
 43
0.5
 10
100.7544123174021
 20
134.2619735380198
 10
101.5540816223552
 20
133.1908289261137
  0
LWPOLYLINE
  5
112
330
1F
100
AcDbEntity
  8
Sichtbare_Kanten_TC_020513_DIN_
  6
Continuous
 62
     7
100
AcDbPolyline
 90
        2
 70
     0
 43
0.5
 10
100.3040816223552
 20
130.9894154247918
 10
100.3040816223552
 20
134.1124154803227
  0
LWPOLYLINE
  5
113
330
1F
100
AcDbEntity
  8
Sichtbare_Kanten_TC_020513_DIN_
  6
Continuous
 62
     7
100
AcDbPolyline
 90
        2
 70
     0
 43
0.5
 10
65.05408162235523
 20
112.7294154247918
 10
65.75408162235522
 20
113.4294154247917
  0
LWPOLYLINE
  5
114
330
1F
100
AcDbEntity
  8
Sichtbare_Kanten_TC_020513_DIN_
  6
Continuous
 62
     7
100
AcDbPolyline
 90
        2
 70
     0
 43
0.5
 10
65.75408162235522
 20
113.4294154247917
 10
71.05408162235523
 20
113.4294154247917
  0
LWPOLYLINE
  5
115
330
1F
100
AcDbEntity
  8
Sichtbare_Kanten_TC_020513_DIN_
  6
Continuous
 62
     7
100
AcDbPolyline
 90
        2
 70
     0
 43
0.5
 10
132.0540816223551
 20
113.4294154247917
 10
71.05408162235523
 20
113.4294154247917
  0
LWPOLYLINE
  5
116
330
1F
100
AcDbEntity
  8
Sichtbare_Kanten_TC_020513_DIN_
  6
Continuous
 62
     7
100
AcDbPolyline
 90
        2
 70
     0
 43
0.5
 10
138.0540816223551
 20
112.7294154247918
 10
137.354081622355
 20
113.4294154247917
  0
LWPOLYLINE
  5
117
330
1F
100
AcDbEntity
  8
Sichtbare_Kanten_TC_020513_DIN_
  6
Continuous
 62
     7
100
AcDbPolyline
 90
        2
 70
     0
 43
0.5
 10
132.0540816223551
 20
113.4294154247917
 10
137.354081622355
 20
113.4294154247917
  0
LWPOLYLINE
  5
118
330
1F
100
AcDbEntity
  8
Sichtbare_Kanten_TC_020513_DIN_
  6
Continuous
 62
     7
100
AcDbPolyline
 90
        2
 70
     0
 43
0.5
 10
71.05408162235523
 20
113.5294154247918
 10
132.0540816223551
 20
113.5294154247918
  0
LWPOLYLINE
  5
119
330
1F
100
AcDbEntity
  8
Sichtbare_Kanten_TC_020513_DIN_
  6
Continuous
 62
     7
100
AcDbPolyline
 90
        2
 70
     0
 43
0.5
 10
65.05408162235523
 20
114.2294154247918
 10
65.75408162235522
 20
113.5294154247918
  0
LWPOLYLINE
  5
11A
330
1F
100
AcDbEntity
  8
Sichtbare_Kanten_TC_020513_DIN_
  6
Continuous
 62
     7
100
AcDbPolyline
 90
        2
 70
     0
 43
0.5
 10
71.05408162235523
 20
113.5294154247918
 10
65.75408162235522
 20
113.5294154247918
  0
LWPOLYLINE
  5
11B
330
1F
100
AcDbEntity
  8
Sichtbare_Kanten_TC_020513_DIN_
  6
Continuous
 62
     7
100
AcDbPolyline
 90
        2
 70
     0
 43
0.5
 10
137.354081622355
 20
113.5294154247918
 10
132.0540816223551
 20
113.5294154247918
  0
LWPOLYLINE
  5
11C
330
1F
100
AcDbEntity
  8
Sichtbare_Kanten_TC_020513_DIN_
  6
Continuous
 62
     7
100
AcDbPolyline
 90
        2
 70
     0
 43
0.5
 10
137.354081622355
 20
113.5294154247918
 10
138.0540816223551
 20
114.2294154247918
  0
LWPOLYLINE
  5
11D
330
1F
100
AcDbEntity
  8
Sichtbare_Kanten_TC_020513_DIN_
  6
Continuous
 62
     7
100
AcDbPolyline
 90
        2
 70
     0
 43
0.5
 10
65.05408162235523
 20
110.2294154247918
 10
65.75408162235522
 20
110.9294154247917
  0
LWPOLYLINE
  5
11E
330
1F
100
AcDbEntity
  8
Sichtbare_Kanten_TC_020513_DIN_
  6
Continuous
 62
     7
100
AcDbPolyline
 90
        2
 70
     0
 43
0.5
 10
65.75408162235522
 20
110.9294154247917
 10
71.05408162235523
 20
110.9294154247917
  0
LWPOLYLINE
  5
11F
330
1F
100
AcDbEntity
  8
Sichtbare_Kanten_TC_020513_DIN_
  6
Continuous
 62
     7
100
AcDbPolyline
 90
        2
 70
     0
 43
0.5
 10
132.0540816223551
 20
110.9294154247917
 10
71.05408162235523
 20
110.9294154247917
  0
LWPOLYLINE
  5
120
330
1F
100
AcDbEntity
  8
Sichtbare_Kanten_TC_020513_DIN_
  6
Continuous
 62
     7
100
AcDbPolyline
 90
        2
 70
     0
 43
0.5
 10
138.0540816223551
 20
110.2294154247918
 10
137.354081622355
 20
110.9294154247917
  0
LWPOLYLINE
  5
121
330
1F
100
AcDbEntity
  8
Sichtbare_Kanten_TC_020513_DIN_
  6
Continuous
 62
     7
100
AcDbPolyline
 90
        2
 70
     0
 43
0.5
 10
132.0540816223551
 20
110.9294154247917
 10
137.354081622355
 20
110.9294154247917
  0
LWPOLYLINE
  5
122
330
1F
100
AcDbEntity
  8
Sichtbare_Kanten_TC_020513_DIN_
  6
Continuous
 62
     7
100
AcDbPolyline
 90
        2
 70
     0
 43
0.5
 10
71.05408162235523
 20
111.0294154247918
 10
132.0540816223551
 20
111.0294154247918
  0
LWPOLYLINE
  5
123
330
1F
100
AcDbEntity
  8
Sichtbare_Kanten_TC_020513_DIN_
  6
Continuous
 62
     7
100
AcDbPolyline
 90
        2
 70
     0
 43
0.5
 10
65.05408162235523
 20
111.7294154247918
 10
65.75408162235522
 20
111.0294154247918
  0
LWPOLYLINE
  5
124
330
1F
100
AcDbEntity
  8
Sichtbare_Kanten_TC_020513_DIN_
  6
Continuous
 62
     7
100
AcDbPolyline
 90
        2
 70
     0
 43
0.5
 10
71.05408162235523
 20
111.0294154247918
 10
65.75408162235522
 20
111.0294154247918
  0
LWPOLYLINE
  5
125
330
1F
100
AcDbEntity
  8
Sichtbare_Kanten_TC_020513_DIN_
  6
Continuous
 62
     7
100
AcDbPolyline
 90
        2
 70
     0
 43
0.5
 10
137.354081622355
 20
111.0294154247918
 10
132.0540816223551
 20
111.0294154247918
  0
LWPOLYLINE
  5
126
330
1F
100
AcDbEntity
  8
Sichtbare_Kanten_TC_020513_DIN_
  6
Continuous
 62
     7
100
AcDbPolyline
 90
        2
 70
     0
 43
0.5
 10
137.354081622355
 20
111.0294154247918
 10
138.0540816223551
 20
111.7294154247918
  0
LWPOLYLINE
  5
127
330
1F
100
AcDbEntity
  8
Sichtbare_Kanten_TC_020513_DIN_
  6
Continuous
 62
     7
100
AcDbPolyline
 90
        2
 70
     0
 43
0.5
 10
65.05408162235523
 20
107.7294154247918
 10
65.75408162235522
 20
108.4294154247917
  0
LWPOLYLINE
  5
128
330
1F
100
AcDbEntity
  8
Sichtbare_Kanten_TC_020513_DIN_
  6
Continuous
 62
     7
100
AcDbPolyline
 90
        2
 70
     0
 43
0.5
 10
65.75408162235522
 20
108.4294154247917
 10
71.05408162235523
 20
108.4294154247917
  0
LWPOLYLINE
  5
129
330
1F
100
AcDbEntity
  8
Sichtbare_Kanten_TC_020513_DIN_
  6
Continuous
 62
     7
100
AcDbPolyline
 90
        2
 70
     0
 43
0.5
 10
132.0540816223551
 20
108.4294154247917
 10
71.05408162235523
 20
108.4294154247917
  0
LWPOLYLINE
  5
12A
330
1F
100
AcDbEntity
  8
Sichtbare_Kanten_TC_020513_DIN_
  6
Continuous
 62
     7
100
AcDbPolyline
 90
        2
 70
     0
 43
0.5
 10
138.0540816223551
 20
107.7294154247918
 10
137.354081622355
 20
108.4294154247917
  0
LWPOLYLINE
  5
12B
330
1F
100
AcDbEntity
  8
Sichtbare_Kanten_TC_020513_DIN_
  6
Continuous
 62
     7
100
AcDbPolyline
 90
        2
 70
     0
 43
0.5
 10
132.0540816223551
 20
108.4294154247917
 10
137.354081622355
 20
108.4294154247917
  0
LWPOLYLINE
  5
12C
330
1F
100
AcDbEntity
  8
Sichtbare_Kanten_TC_020513_DIN_
  6
Continuous
 62
     7
100
AcDbPolyline
 90
        2
 70
     0
 43
0.5
 10
71.05408162235523
 20
108.5294154247918
 10
132.0540816223551
 20
108.5294154247918
  0
LWPOLYLINE
  5
12D
330
1F
100
AcDbEntity
  8
Sichtbare_Kanten_TC_020513_DIN_
  6
Continuous
 62
     7
100
AcDbPolyline
 90
        2
 70
     0
 43
0.5
 10
65.05408162235523
 20
109.2294154247918
 10
65.75408162235522
 20
108.5294154247918
  0
LWPOLYLINE
  5
12E
330
1F
100
AcDbEntity
  8
Sichtbare_Kanten_TC_020513_DIN_
  6
Continuous
 62
     7
100
AcDbPolyline
 90
        2
 70
     0
 43
0.5
 10
71.05408162235523
 20
108.5294154247918
 10
65.75408162235522
 20
108.5294154247918
  0
LWPOLYLINE
  5
12F
330
1F
100
AcDbEntity
  8
Sichtbare_Kanten_TC_020513_DIN_
  6
Continuous
 62
     7
100
AcDbPolyline
 90
        2
 70
     0
 43
0.5
 10
137.354081622355
 20
108.5294154247918
 10
132.0540816223551
 20
108.5294154247918
  0
LWPOLYLINE
  5
130
330
1F
100
AcDbEntity
  8
Sichtbare_Kanten_TC_020513_DIN_
  6
Continuous
 62
     7
100
AcDbPolyline
 90
        2
 70
     0
 43
0.5
 10
137.354081622355
 20
108.5294154247918
 10
138.0540816223551
 20
109.2294154247918
  0
LWPOLYLINE
  5
131
330
1F
100
AcDbEntity
  8
Sichtbare_Kanten_TC_020513_DIN_
  6
Continuous
 62
     7
100
AcDbPolyline
 90
        2
 70
     0
 43
0.5
 10
137.354081622355
 20
113.4294154247917
 10
137.354081622355
 20
113.5294154247918
  0
LWPOLYLINE
  5
132
330
1F
100
AcDbEntity
  8
Sichtbare_Kanten_TC_020513_DIN_
  6
Continuous
 62
     7
100
AcDbPolyline
 90
        2
 70
     0
 43
0.5
 10
65.75408162235522
 20
113.4294154247917
 10
65.75408162235522
 20
113.5294154247918
  0
LWPOLYLINE
  5
133
330
1F
100
AcDbEntity
  8
Sichtbare_Kanten_TC_020513_DIN_
  6
Continuous
 62
     7
100
AcDbPolyline
 90
        2
 70
     0
 43
0.5
 10
137.354081622355
 20
110.9294154247917
 10
137.354081622355
 20
111.0294154247918
  0
LWPOLYLINE
  5
134
330
1F
100
AcDbEntity
  8
Sichtbare_Kanten_TC_020513_DIN_
  6
Continuous
 62
     7
100
AcDbPolyline
 90
        2
 70
     0
 43
0.5
 10
65.75408162235522
 20
110.9294154247917
 10
65.75408162235522
 20
111.0294154247918
  0
LWPOLYLINE
  5
135
330
1F
100
AcDbEntity
  8
Sichtbare_Kanten_TC_020513_DIN_
  6
Continuous
 62
     7
100
AcDbPolyline
 90
        2
 70
     0
 43
0.5
 10
137.354081622355
 20
108.4294154247917
 10
137.354081622355
 20
108.5294154247918
  0
LWPOLYLINE
  5
136
330
1F
100
AcDbEntity
  8
Sichtbare_Kanten_TC_020513_DIN_
  6
Continuous
 62
     7
100
AcDbPolyline
 90
        2
 70
     0
 43
0.5
 10
65.75408162235522
 20
108.4294154247917
 10
65.75408162235522
 20
108.5294154247918
  0
LWPOLYLINE
  5
137
330
1F
100
AcDbEntity
  8
Sichtbare_Kanten_TC_020513_DIN_
  6
Continuous
 62
     7
100
AcDbPolyline
 90
        2
 70
     0
 43
0.5
 10
65.05408162235523
 20
105.2294154247918
 10
65.75408162235522
 20
105.9294154247917
  0
LWPOLYLINE
  5
138
330
1F
100
AcDbEntity
  8
Sichtbare_Kanten_TC_020513_DIN_
  6
Continuous
 62
     7
100
AcDbPolyline
 90
        2
 70
     0
 43
0.5
 10
65.75408162235522
 20
105.9294154247917
 10
71.05408162235523
 20
105.9294154247917
  0
LWPOLYLINE
  5
139
330
1F
100
AcDbEntity
  8
Sichtbare_Kanten_TC_020513_DIN_
  6
Continuous
 62
     7
100
AcDbPolyline
 90
        2
 70
     0
 43
0.5
 10
132.0540816223551
 20
105.9294154247917
 10
71.05408162235523
 20
105.9294154247917
  0
LWPOLYLINE
  5
13A
330
1F
100
AcDbEntity
  8
Sichtbare_Kanten_TC_020513_DIN_
  6
Continuous
 62
     7
100
AcDbPolyline
 90
        2
 70
     0
 43
0.5
 10
138.0540816223551
 20
105.2294154247918
 10
137.354081622355
 20
105.9294154247917
  0
LWPOLYLINE
  5
13B
330
1F
100
AcDbEntity
  8
Sichtbare_Kanten_TC_020513_DIN_
  6
Continuous
 62
     7
100
AcDbPolyline
 90
        2
 70
     0
 43
0.5
 10
132.0540816223551
 20
105.9294154247917
 10
137.354081622355
 20
105.9294154247917
  0
LWPOLYLINE
  5
13C
330
1F
100
AcDbEntity
  8
Sichtbare_Kanten_TC_020513_DIN_
  6
Continuous
 62
     7
100
AcDbPolyline
 90
        2
 70
     0
 43
0.5
 10
71.05408162235523
 20
106.0294154247918
 10
132.0540816223551
 20
106.0294154247918
  0
LWPOLYLINE
  5
13D
330
1F
100
AcDbEntity
  8
Sichtbare_Kanten_TC_020513_DIN_
  6
Continuous
 62
     7
100
AcDbPolyline
 90
        2
 70
     0
 43
0.5
 10
65.05408162235523
 20
106.7294154247918
 10
65.75408162235522
 20
106.0294154247918
  0
LWPOLYLINE
  5
13E
330
1F
100
AcDbEntity
  8
Sichtbare_Kanten_TC_020513_DIN_
  6
Continuous
 62
     7
100
AcDbPolyline
 90
        2
 70
     0
 43
0.5
 10
71.05408162235523
 20
106.0294154247918
 10
65.75408162235522
 20
106.0294154247918
  0
LWPOLYLINE
  5
13F
330
1F
100
AcDbEntity
  8
Sichtbare_Kanten_TC_020513_DIN_
  6
Continuous
 62
     7
100
AcDbPolyline
 90
        2
 70
     0
 43
0.5
 10
137.354081622355
 20
106.0294154247918
 10
132.0540816223551
 20
106.0294154247918
  0
LWPOLYLINE
  5
140
330
1F
100
AcDbEntity
  8
Sichtbare_Kanten_TC_020513_DIN_
  6
Continuous
 62
     7
100
AcDbPolyline
 90
        2
 70
     0
 43
0.5
 10
137.354081622355
 20
106.0294154247918
 10
138.0540816223551
 20
106.7294154247918
  0
LWPOLYLINE
  5
141
330
1F
100
AcDbEntity
  8
Sichtbare_Kanten_TC_020513_DIN_
  6
Continuous
 62
     7
100
AcDbPolyline
 90
        2
 70
     0
 43
0.5
 10
137.354081622355
 20
105.9294154247917
 10
137.354081622355
 20
106.0294154247918
  0
LWPOLYLINE
  5
142
330
1F
100
AcDbEntity
  8
Sichtbare_Kanten_TC_020513_DIN_
  6
Continuous
 62
     7
100
AcDbPolyline
 90
        2
 70
     0
 43
0.5
 10
65.75408162235522
 20
105.9294154247917
 10
65.75408162235522
 20
106.0294154247918
  0
LWPOLYLINE
  5
143
330
1F
100
AcDbEntity
  8
Sichtbare_Kanten_TC_020513_DIN_
  6
Continuous
 62
     7
100
AcDbPolyline
 90
        2
 70
     0
 43
0.5
 10
187.607440963759
 20
96.97941542479175
 10
187.607440963759
 20
101.9794154247918
  0
LWPOLYLINE
  5
144
330
1F
100
AcDbEntity
  8
Sichtbare_Kanten_TC_020513_DIN_
  6
Continuous
 62
     7
100
AcDbPolyline
 90
        2
 70
     0
 43
0.5
 10
192.107440963759
 20
96.97941542479175
 10
192.107440963759
 20
101.9794154247918
  0
LWPOLYLINE
  5
145
330
1F
100
AcDbEntity
  8
Sichtbare_Kanten_TC_020513_DIN_
  6
Continuous
 62
     7
100
AcDbPolyline
 90
        2
 70
     0
 43
0.5
 10
187.607440963759
 20
101.9794154247918
 10
192.107440963759
 20
101.9794154247918
  0
LWPOLYLINE
  5
146
330
1F
100
AcDbEntity
  8
Sichtbare_Kanten_TC_020513_DIN_
  6
Continuous
 62
     7
100
AcDbPolyline
 90
        2
 70
     0
 43
0.5
 10
187.607440963759
 20
96.97941542479175
 10
192.107440963759
 20
96.97941542479175
  0
LWPOLYLINE
  5
147
330
1F
100
AcDbEntity
  8
Sichtbare_Kanten_TC_020513_DIN_
  6
Continuous
 62
     7
100
AcDbPolyline
 90
        2
 70
     0
 43
0.5
 10
192.107440963759
 20
101.9794154247918
 10
193.607440963759
 20
103.4794154247918
  0
LWPOLYLINE
  5
148
330
1F
100
AcDbEntity
  8
Sichtbare_Kanten_TC_020513_DIN_
  6
Continuous
 62
     7
100
AcDbPolyline
 90
        2
 70
     0
 43
0.5
 10
192.107440963759
 20
96.97941542479175
 10
193.607440963759
 20
95.47941542479175
  0
LWPOLYLINE
  5
149
330
1F
100
AcDbEntity
  8
Sichtbare_Kanten_TC_020513_DIN_
  6
Continuous
 62
     7
100
AcDbPolyline
 90
        2
 70
     0
 43
0.5
 10
242.607440963759
 20
96.97941542479175
 10
242.607440963759
 20
101.9794154247918
  0
LWPOLYLINE
  5
14A
330
1F
100
AcDbEntity
  8
Sichtbare_Kanten_TC_020513_DIN_
  6
Continuous
 62
     7
100
AcDbPolyline
 90
        2
 70
     0
 43
0.5
 10
238.107440963759
 20
96.97941542479175
 10
238.107440963759
 20
101.9794154247918
  0
LWPOLYLINE
  5
14B
330
1F
100
AcDbEntity
  8
Sichtbare_Kanten_TC_020513_DIN_
  6
Continuous
 62
     7
100
AcDbPolyline
 90
        2
 70
     0
 43
0.5
 10
238.107440963759
 20
101.9794154247918
 10
242.607440963759
 20
101.9794154247918
  0
LWPOLYLINE
  5
14C
330
1F
100
AcDbEntity
  8
Sichtbare_Kanten_TC_020513_DIN_
  6
Continuous
 62
     7
100
AcDbPolyline
 90
        2
 70
     0
 43
0.5
 10
238.107440963759
 20
96.97941542479175
 10
242.607440963759
 20
96.97941542479175
  0
LWPOLYLINE
  5
14D
330
1F
100
AcDbEntity
  8
Sichtbare_Kanten_TC_020513_DIN_
  6
Continuous
 62
     7
100
AcDbPolyline
 90
        2
 70
     0
 43
0.5
 10
238.107440963759
 20
96.97941542479175
 10
236.607440963759
 20
95.47941542479175
  0
LWPOLYLINE
  5
14E
330
1F
100
AcDbEntity
  8
Sichtbare_Kanten_TC_020513_DIN_
  6
Continuous
 62
     7
100
AcDbPolyline
 90
        2
 70
     0
 43
0.5
 10
238.107440963759
 20
101.9794154247918
 10
236.607440963759
 20
103.4794154247918
  0
LWPOLYLINE
  5
14F
330
1F
100
AcDbEntity
  8
Sichtbare_Kanten_TC_020513_DIN_
  6
Continuous
 62
     7
100
AcDbPolyline
 90
        2
 70
     0
 43
0.5
 10
230.607440963754
 20
144.9794154247917
 10
233.607440963754
 20
144.9794154247917
  0
LWPOLYLINE
  5
150
330
1F
100
AcDbEntity
  8
Sichtbare_Kanten_TC_020513_DIN_
  6
Continuous
 62
     7
100
AcDbPolyline
 90
        2
 70
     0
 43
0.5
 10
230.607440963754
 20
144.9794154247917
 10
199.607440963753
 20
144.9794154247917
  0
LWPOLYLINE
  5
151
330
1F
100
AcDbEntity
  8
Sichtbare_Kanten_TC_020513_DIN_
  6
Continuous
 62
     7
100
AcDbPolyline
 90
        2
 70
     0
 43
0.5
 10
196.607440963754
 20
144.9794154247917
 10
199.607440963753
 20
144.9794154247917
  0
LWPOLYLINE
  5
152
330
1F
100
AcDbEntity
  8
Sichtbare_Kanten_TC_020513_DIN_
  6
Continuous
 62
     7
100
AcDbPolyline
 90
        2
 70
     0
 43
0.5
 10
199.607440963753
 20
112.7294154247918
 10
213.607440963753
 20
112.7294154247918
  0
LWPOLYLINE
  5
153
330
1F
100
AcDbEntity
  8
Sichtbare_Kanten_TC_020513_DIN_
  6
Continuous
 62
     7
100
AcDbPolyline
 90
        2
 70
     0
 43
0.5
 10
213.607440963753
 20
114.2294154247918
 10
199.607440963753
 20
114.2294154247918
  0
LWPOLYLINE
  5
154
330
1F
100
AcDbEntity
  8
Sichtbare_Kanten_TC_020513_DIN_
  6
Continuous
 62
     7
100
AcDbPolyline
 90
        2
 70
     0
 43
0.5
 10
199.607440963753
 20
110.2294154247918
 10
213.607440963753
 20
110.2294154247918
  0
LWPOLYLINE
  5
155
330
1F
100
AcDbEntity
  8
Sichtbare_Kanten_TC_020513_DIN_
  6
Continuous
 62
     7
100
AcDbPolyline
 90
        2
 70
     0
 43
0.5
 10
213.607440963753
 20
111.7294154247918
 10
199.607440963753
 20
111.7294154247918
  0
LWPOLYLINE
  5
156
330
1F
100
AcDbEntity
  8
Sichtbare_Kanten_TC_020513_DIN_
  6
Continuous
 62
     7
100
AcDbPolyline
 90
        2
 70
     0
 43
0.5
 10
199.607440963753
 20
107.7294154247918
 10
213.607440963753
 20
107.7294154247918
  0
LWPOLYLINE
  5
157
330
1F
100
AcDbEntity
  8
Sichtbare_Kanten_TC_020513_DIN_
  6
Continuous
 62
     7
100
AcDbPolyline
 90
        2
 70
     0
 43
0.5
 10
213.607440963753
 20
112.7294154247918
 10
213.607440963753
 20
114.2294154247918
  0
LWPOLYLINE
  5
158
330
1F
100
AcDbEntity
  8
Sichtbare_Kanten_TC_020513_DIN_
  6
Continuous
 62
     7
100
AcDbPolyline
 90
        2
 70
     0
 43
0.5
 10
213.607440963753
 20
110.2294154247918
 10
213.607440963753
 20
111.7294154247918
  0
LWPOLYLINE
  5
159
330
1F
100
AcDbEntity
  8
Sichtbare_Kanten_TC_020513_DIN_
  6
Continuous
 62
     7
100
AcDbPolyline
 90
        2
 70
     0
 43
0.5
 10
213.607440963753
 20
109.2294154247918
 10
199.607440963753
 20
109.2294154247918
  0
LWPOLYLINE
  5
15A
330
1F
100
AcDbEntity
  8
Sichtbare_Kanten_TC_020513_DIN_
  6
Continuous
 62
     7
100
AcDbPolyline
 90
        2
 70
     0
 43
0.5
 10
213.607440963753
 20
107.7294154247918
 10
213.607440963753
 20
109.2294154247918
  0
LWPOLYLINE
  5
15B
330
1F
100
AcDbEntity
  8
Sichtbare_Kanten_TC_020513_DIN_
  6
Continuous
 62
     7
100
AcDbPolyline
 90
        2
 70
     0
 43
0.5
 10
213.607440963753
 20
106.7294154247918
 10
199.607440963753
 20
106.7294154247918
  0
LWPOLYLINE
  5
15C
330
1F
100
AcDbEntity
  8
Sichtbare_Kanten_TC_020513_DIN_
  6
Continuous
 62
     7
100
AcDbPolyline
 90
        2
 70
     0
 43
0.5
 10
213.607440963753
 20
105.2294154247918
 10
213.607440963753
 20
106.7294154247918
  0
LWPOLYLINE
  5
15D
330
1F
100
AcDbEntity
  8
Sichtbare_Kanten_TC_020513_DIN_
  6
Continuous
 62
     7
100
AcDbPolyline
 90
        2
 70
     0
 43
0.5
 10
199.607440963753
 20
105.2294154247918
 10
213.607440963753
 20
105.2294154247918
  0
LWPOLYLINE
  5
15E
330
1F
100
AcDbEntity
  8
Sichtbare_Kanten_TC_020513_DIN_
  6
Continuous
 62
     7
100
AcDbPolyline
 90
        2
 70
     0
 43
0.5
 10
230.607440963753
 20
92.97941542479175
 10
199.607440963753
 20
92.97941542479175
  0
LWPOLYLINE
  5
15F
330
1F
100
AcDbEntity
  8
Sichtbare_Kanten_TC_020513_DIN_
  6
Continuous
 62
     7
100
AcDbPolyline
 90
        2
 70
     0
 43
0.5
 10
216.607440963753
 20
105.2294154247918
 10
230.607440963753
 20
105.2294154247918
  0
LWPOLYLINE
  5
160
330
1F
100
AcDbEntity
  8
Sichtbare_Kanten_TC_020513_DIN_
  6
Continuous
 62
     7
100
AcDbPolyline
 90
        2
 70
     0
 43
0.5
 10
216.607440963753
 20
106.7294154247918
 10
216.607440963753
 20
105.2294154247918
  0
LWPOLYLINE
  5
161
330
1F
100
AcDbEntity
  8
Sichtbare_Kanten_TC_020513_DIN_
  6
Continuous
 62
     7
100
AcDbPolyline
 90
        2
 70
     0
 43
0.5
 10
230.607440963753
 20
106.7294154247918
 10
216.607440963753
 20
106.7294154247918
  0
LWPOLYLINE
  5
162
330
1F
100
AcDbEntity
  8
Sichtbare_Kanten_TC_020513_DIN_
  6
Continuous
 62
     7
100
AcDbPolyline
 90
        2
 70
     0
 43
0.5
 10
216.607440963753
 20
107.7294154247918
 10
230.607440963753
 20
107.7294154247918
  0
LWPOLYLINE
  5
163
330
1F
100
AcDbEntity
  8
Sichtbare_Kanten_TC_020513_DIN_
  6
Continuous
 62
     7
100
AcDbPolyline
 90
        2
 70
     0
 43
0.5
 10
216.607440963753
 20
109.2294154247918
 10
216.607440963753
 20
107.7294154247918
  0
LWPOLYLINE
  5
164
330
1F
100
AcDbEntity
  8
Sichtbare_Kanten_TC_020513_DIN_
  6
Continuous
 62
     7
100
AcDbPolyline
 90
        2
 70
     0
 43
0.5
 10
230.607440963753
 20
109.2294154247918
 10
216.607440963753
 20
109.2294154247918
  0
LWPOLYLINE
  5
165
330
1F
100
AcDbEntity
  8
Sichtbare_Kanten_TC_020513_DIN_
  6
Continuous
 62
     7
100
AcDbPolyline
 90
        2
 70
     0
 43
0.5
 10
216.607440963753
 20
110.2294154247918
 10
230.607440963753
 20
110.2294154247918
  0
LWPOLYLINE
  5
166
330
1F
100
AcDbEntity
  8
Sichtbare_Kanten_TC_020513_DIN_
  6
Continuous
 62
     7
100
AcDbPolyline
 90
        2
 70
     0
 43
0.5
 10
216.607440963753
 20
111.7294154247918
 10
216.607440963753
 20
110.2294154247918
  0
LWPOLYLINE
  5
167
330
1F
100
AcDbEntity
  8
Sichtbare_Kanten_TC_020513_DIN_
  6
Continuous
 62
     7
100
AcDbPolyline
 90
        2
 70
     0
 43
0.5
 10
230.607440963753
 20
111.7294154247918
 10
216.607440963753
 20
111.7294154247918
  0
LWPOLYLINE
  5
168
330
1F
100
AcDbEntity
  8
Sichtbare_Kanten_TC_020513_DIN_
  6
Continuous
 62
     7
100
AcDbPolyline
 90
        2
 70
     0
 43
0.5
 10
216.607440963753
 20
112.7294154247918
 10
230.607440963753
 20
112.7294154247918
  0
LWPOLYLINE
  5
169
330
1F
100
AcDbEntity
  8
Sichtbare_Kanten_TC_020513_DIN_
  6
Continuous
 62
     7
100
AcDbPolyline
 90
        2
 70
     0
 43
0.5
 10
216.607440963753
 20
114.2294154247918
 10
216.607440963753
 20
112.7294154247918
  0
LWPOLYLINE
  5
16A
330
1F
100
AcDbEntity
  8
Sichtbare_Kanten_TC_020513_DIN_
  6
Continuous
 62
     7
100
AcDbPolyline
 90
        2
 70
     0
 43
0.5
 10
230.607440963753
 20
114.2294154247918
 10
216.607440963753
 20
114.2294154247918
  0
LWPOLYLINE
  5
16B
330
1F
100
AcDbEntity
  8
Sichtbare_Kanten_TC_020513_DIN_
  6
Continuous
 62
     7
100
AcDbPolyline
 90
        2
 70
     0
 43
0.5
 10
199.607440963753
 20
113.4294154247917
 10
213.607440963753
 20
113.4294154247917
  0
LWPOLYLINE
  5
16C
330
1F
100
AcDbEntity
  8
Sichtbare_Kanten_TC_020513_DIN_
  6
Continuous
 62
     7
100
AcDbPolyline
 90
        2
 70
     0
 43
0.5
 10
199.607440963753
 20
113.4294154247917
 10
194.3074409637541
 20
113.4294154247917
  0
LWPOLYLINE
  5
16D
330
1F
100
AcDbEntity
  8
Sichtbare_Kanten_TC_020513_DIN_
  6
Continuous
 62
     7
100
AcDbPolyline
 90
        2
 70
     0
 43
0.5
 10
194.3074409637541
 20
113.4294154247917
 10
193.607440963754
 20
112.7294154247918
  0
LWPOLYLINE
  5
16E
330
1F
100
AcDbEntity
  8
Sichtbare_Kanten_TC_020513_DIN_
  6
Continuous
 62
     7
100
AcDbPolyline
 90
        2
 70
     0
 43
0.5
 10
194.3074409637541
 20
113.5294154247918
 10
193.607440963754
 20
114.2294154247918
  0
LWPOLYLINE
  5
16F
330
1F
100
AcDbEntity
  8
Sichtbare_Kanten_TC_020513_DIN_
  6
Continuous
 62
     7
100
AcDbPolyline
 90
        2
 70
     0
 43
0.5
 10
194.3074409637541
 20
113.5294154247918
 10
199.607440963753
 20
113.5294154247918
  0
LWPOLYLINE
  5
170
330
1F
100
AcDbEntity
  8
Sichtbare_Kanten_TC_020513_DIN_
  6
Continuous
 62
     7
100
AcDbPolyline
 90
        2
 70
     0
 43
0.5
 10
213.607440963753
 20
113.5294154247918
 10
199.607440963753
 20
113.5294154247918
  0
LWPOLYLINE
  5
171
330
1F
100
AcDbEntity
  8
Sichtbare_Kanten_TC_020513_DIN_
  6
Continuous
 62
     7
100
AcDbPolyline
 90
        2
 70
     0
 43
0.5
 10
199.607440963753
 20
110.9294154247917
 10
213.607440963753
 20
110.9294154247917
  0
LWPOLYLINE
  5
172
330
1F
100
AcDbEntity
  8
Sichtbare_Kanten_TC_020513_DIN_
  6
Continuous
 62
     7
100
AcDbPolyline
 90
        2
 70
     0
 43
0.5
 10
199.607440963753
 20
110.9294154247917
 10
194.3074409637541
 20
110.9294154247917
  0
LWPOLYLINE
  5
173
330
1F
100
AcDbEntity
  8
Sichtbare_Kanten_TC_020513_DIN_
  6
Continuous
 62
     7
100
AcDbPolyline
 90
        2
 70
     0
 43
0.5
 10
194.3074409637541
 20
110.9294154247917
 10
193.607440963754
 20
110.2294154247918
  0
LWPOLYLINE
  5
174
330
1F
100
AcDbEntity
  8
Sichtbare_Kanten_TC_020513_DIN_
  6
Continuous
 62
     7
100
AcDbPolyline
 90
        2
 70
     0
 43
0.5
 10
194.3074409637541
 20
111.0294154247918
 10
193.607440963754
 20
111.7294154247918
  0
LWPOLYLINE
  5
175
330
1F
100
AcDbEntity
  8
Sichtbare_Kanten_TC_020513_DIN_
  6
Continuous
 62
     7
100
AcDbPolyline
 90
        2
 70
     0
 43
0.5
 10
194.3074409637541
 20
111.0294154247918
 10
199.607440963753
 20
111.0294154247918
  0
LWPOLYLINE
  5
176
330
1F
100
AcDbEntity
  8
Sichtbare_Kanten_TC_020513_DIN_
  6
Continuous
 62
     7
100
AcDbPolyline
 90
        2
 70
     0
 43
0.5
 10
213.607440963753
 20
111.0294154247918
 10
199.607440963753
 20
111.0294154247918
  0
LWPOLYLINE
  5
177
330
1F
100
AcDbEntity
  8
Sichtbare_Kanten_TC_020513_DIN_
  6
Continuous
 62
     7
100
AcDbPolyline
 90
        2
 70
     0
 43
0.5
 10
199.607440963753
 20
108.4294154247917
 10
194.3074409637541
 20
108.4294154247917
  0
LWPOLYLINE
  5
178
330
1F
100
AcDbEntity
  8
Sichtbare_Kanten_TC_020513_DIN_
  6
Continuous
 62
     7
100
AcDbPolyline
 90
        2
 70
     0
 43
0.5
 10
194.3074409637541
 20
108.4294154247917
 10
193.607440963754
 20
107.7294154247918
  0
LWPOLYLINE
  5
179
330
1F
100
AcDbEntity
  8
Sichtbare_Kanten_TC_020513_DIN_
  6
Continuous
 62
     7
100
AcDbPolyline
 90
        2
 70
     0
 43
0.5
 10
199.607440963753
 20
108.4294154247917
 10
213.607440963753
 20
108.4294154247917
  0
LWPOLYLINE
  5
17A
330
1F
100
AcDbEntity
  8
Sichtbare_Kanten_TC_020513_DIN_
  6
Continuous
 62
     7
100
AcDbPolyline
 90
        2
 70
     0
 43
0.5
 10
194.3074409637541
 20
108.5294154247918
 10
193.607440963754
 20
109.2294154247918
  0
LWPOLYLINE
  5
17B
330
1F
100
AcDbEntity
  8
Sichtbare_Kanten_TC_020513_DIN_
  6
Continuous
 62
     7
100
AcDbPolyline
 90
        2
 70
     0
 43
0.5
 10
194.3074409637541
 20
108.5294154247918
 10
199.607440963753
 20
108.5294154247918
  0
LWPOLYLINE
  5
17C
330
1F
100
AcDbEntity
  8
Sichtbare_Kanten_TC_020513_DIN_
  6
Continuous
 62
     7
100
AcDbPolyline
 90
        2
 70
     0
 43
0.5
 10
213.607440963753
 20
108.5294154247918
 10
199.607440963753
 20
108.5294154247918
  0
LWPOLYLINE
  5
17D
330
1F
100
AcDbEntity
  8
Sichtbare_Kanten_TC_020513_DIN_
  6
Continuous
 62
     7
100
AcDbPolyline
 90
        2
 70
     0
 43
0.5
 10
194.3074409637541
 20
113.4294154247917
 10
194.3074409637541
 20
113.5294154247918
  0
LWPOLYLINE
  5
17E
330
1F
100
AcDbEntity
  8
Sichtbare_Kanten_TC_020513_DIN_
  6
Continuous
 62
     7
100
AcDbPolyline
 90
        2
 70
     0
 43
0.5
 10
194.3074409637541
 20
110.9294154247917
 10
194.3074409637541
 20
111.0294154247918
  0
LWPOLYLINE
  5
17F
330
1F
100
AcDbEntity
  8
Sichtbare_Kanten_TC_020513_DIN_
  6
Continuous
 62
     7
100
AcDbPolyline
 90
        2
 70
     0
 43
0.5
 10
194.3074409637541
 20
108.4294154247917
 10
194.3074409637541
 20
108.5294154247918
  0
LWPOLYLINE
  5
180
330
1F
100
AcDbEntity
  8
Sichtbare_Kanten_TC_020513_DIN_
  6
Continuous
 62
     7
100
AcDbPolyline
 90
        2
 70
     0
 43
0.5
 10
193.607440963754
 20
105.2294154247918
 10
194.3074409637541
 20
105.9294154247917
  0
LWPOLYLINE
  5
181
330
1F
100
AcDbEntity
  8
Sichtbare_Kanten_TC_020513_DIN_
  6
Continuous
 62
     7
100
AcDbPolyline
 90
        2
 70
     0
 43
0.5
 10
199.607440963753
 20
105.9294154247917
 10
194.3074409637541
 20
105.9294154247917
  0
LWPOLYLINE
  5
182
330
1F
100
AcDbEntity
  8
Sichtbare_Kanten_TC_020513_DIN_
  6
Continuous
 62
     7
100
AcDbPolyline
 90
        2
 70
     0
 43
0.5
 10
199.607440963753
 20
105.9294154247917
 10
213.607440963753
 20
105.9294154247917
  0
LWPOLYLINE
  5
183
330
1F
100
AcDbEntity
  8
Sichtbare_Kanten_TC_020513_DIN_
  6
Continuous
 62
     7
100
AcDbPolyline
 90
        2
 70
     0
 43
0.5
 10
194.3074409637541
 20
106.0294154247918
 10
193.607440963754
 20
106.7294154247918
  0
LWPOLYLINE
  5
184
330
1F
100
AcDbEntity
  8
Sichtbare_Kanten_TC_020513_DIN_
  6
Continuous
 62
     7
100
AcDbPolyline
 90
        2
 70
     0
 43
0.5
 10
194.3074409637541
 20
106.0294154247918
 10
199.607440963753
 20
106.0294154247918
  0
LWPOLYLINE
  5
185
330
1F
100
AcDbEntity
  8
Sichtbare_Kanten_TC_020513_DIN_
  6
Continuous
 62
     7
100
AcDbPolyline
 90
        2
 70
     0
 43
0.5
 10
213.607440963753
 20
106.0294154247918
 10
199.607440963753
 20
106.0294154247918
  0
LWPOLYLINE
  5
186
330
1F
100
AcDbEntity
  8
Sichtbare_Kanten_TC_020513_DIN_
  6
Continuous
 62
     7
100
AcDbPolyline
 90
        2
 70
     0
 43
0.5
 10
194.3074409637541
 20
105.9294154247917
 10
194.3074409637541
 20
106.0294154247918
  0
LWPOLYLINE
  5
187
330
1F
100
AcDbEntity
  8
Sichtbare_Kanten_TC_020513_DIN_
  6
Continuous
 62
     7
100
AcDbPolyline
 90
        2
 70
     0
 43
0.5
 10
199.607440963753
 20
112.7294154247918
 10
193.607440963754
 20
112.7294154247918
  0
LWPOLYLINE
  5
188
330
1F
100
AcDbEntity
  8
Sichtbare_Kanten_TC_020513_DIN_
  6
Continuous
 62
     7
100
AcDbPolyline
 90
        2
 70
     0
 43
0.5
 10
193.607440963754
 20
114.2294154247918
 10
199.607440963753
 20
114.2294154247918
  0
LWPOLYLINE
  5
189
330
1F
100
AcDbEntity
  8
Sichtbare_Kanten_TC_020513_DIN_
  6
Continuous
 62
     7
100
AcDbPolyline
 90
        2
 70
     0
 43
0.5
 10
199.607440963753
 20
110.2294154247918
 10
193.607440963754
 20
110.2294154247918
  0
LWPOLYLINE
  5
18A
330
1F
100
AcDbEntity
  8
Sichtbare_Kanten_TC_020513_DIN_
  6
Continuous
 62
     7
100
AcDbPolyline
 90
        2
 70
     0
 43
0.5
 10
193.607440963754
 20
111.7294154247918
 10
199.607440963753
 20
111.7294154247918
  0
LWPOLYLINE
  5
18B
330
1F
100
AcDbEntity
  8
Sichtbare_Kanten_TC_020513_DIN_
  6
Continuous
 62
     7
100
AcDbPolyline
 90
        2
 70
     0
 43
0.5
 10
199.607440963753
 20
107.7294154247918
 10
193.607440963754
 20
107.7294154247918
  0
LWPOLYLINE
  5
18C
330
1F
100
AcDbEntity
  8
Sichtbare_Kanten_TC_020513_DIN_
  6
Continuous
 62
     7
100
AcDbPolyline
 90
        2
 70
     0
 43
0.5
 10
193.607440963754
 20
107.7294154247918
 10
193.607440963754
 20
106.7294154247918
  0
LWPOLYLINE
  5
18D
330
1F
100
AcDbEntity
  8
Sichtbare_Kanten_TC_020513_DIN_
  6
Continuous
 62
     7
100
AcDbPolyline
 90
        2
 70
     0
 43
0.5
 10
193.607440963754
 20
106.7294154247918
 10
199.607440963753
 20
106.7294154247918
  0
LWPOLYLINE
  5
18E
330
1F
100
AcDbEntity
  8
Sichtbare_Kanten_TC_020513_DIN_
  6
Continuous
 62
     7
100
AcDbPolyline
 90
        2
 70
     0
 43
0.5
 10
193.607440963754
 20
109.2294154247918
 10
199.607440963753
 20
109.2294154247918
  0
LWPOLYLINE
  5
18F
330
1F
100
AcDbEntity
  8
Sichtbare_Kanten_TC_020513_DIN_
  6
Continuous
 62
     7
100
AcDbPolyline
 90
        2
 70
     0
 43
0.5
 10
193.607440963754
 20
110.2294154247918
 10
193.607440963754
 20
109.2294154247918
  0
LWPOLYLINE
  5
190
330
1F
100
AcDbEntity
  8
Sichtbare_Kanten_TC_020513_DIN_
  6
Continuous
 62
     7
100
AcDbPolyline
 90
        2
 70
     0
 43
0.5
 10
193.607440963754
 20
141.9794154247917
 10
193.607440963754
 20
114.2294154247918
  0
LWPOLYLINE
  5
191
330
1F
100
AcDbEntity
  8
Sichtbare_Kanten_TC_020513_DIN_
  6
Continuous
 62
     7
100
AcDbPolyline
 90
        2
 70
     0
 43
0.5
 10
193.607440963754
 20
112.7294154247918
 10
193.607440963754
 20
111.7294154247918
  0
LWPOLYLINE
  5
192
330
1F
100
AcDbEntity
  8
Sichtbare_Kanten_TC_020513_DIN_
  6
Continuous
 62
     7
100
AcDbPolyline
 90
        2
 70
     0
 43
0.5
 10
199.607440963753
 20
105.2294154247918
 10
193.607440963754
 20
105.2294154247918
  0
LWPOLYLINE
  5
193
330
1F
100
AcDbEntity
  8
Sichtbare_Kanten_TC_020513_DIN_
  6
Continuous
 62
     7
100
AcDbPolyline
 90
        2
 70
     0
 43
0.5
 10
193.607440963754
 20
105.2294154247918
 10
193.607440963754
 20
92.97941542479175
  0
LWPOLYLINE
  5
194
330
1F
100
AcDbEntity
  8
Sichtbare_Kanten_TC_020513_DIN_
  6
Continuous
 62
     7
100
AcDbPolyline
 90
        2
 70
     0
 43
0.5
 10
199.607440963753
 20
92.97941542479175
 10
193.607440963754
 20
92.97941542479175
  0
LWPOLYLINE
  5
195
330
1F
100
AcDbEntity
  8
Sichtbare_Kanten_TC_020513_DIN_
  6
Continuous
 62
     7
100
AcDbPolyline
 90
        2
 70
     0
 43
0.5
 10
236.607440963754
 20
112.7294154247918
 10
230.607440963753
 20
112.7294154247918
  0
LWPOLYLINE
  5
196
330
1F
100
AcDbEntity
  8
Sichtbare_Kanten_TC_020513_DIN_
  6
Continuous
 62
     7
100
AcDbPolyline
 90
        2
 70
     0
 43
0.5
 10
236.607440963754
 20
111.7294154247918
 10
236.607440963754
 20
112.7294154247918
  0
LWPOLYLINE
  5
197
330
1F
100
AcDbEntity
  8
Sichtbare_Kanten_TC_020513_DIN_
  6
Continuous
 62
     7
100
AcDbPolyline
 90
        2
 70
     0
 43
0.5
 10
230.607440963753
 20
111.7294154247918
 10
236.607440963754
 20
111.7294154247918
  0
LWPOLYLINE
  5
198
330
1F
100
AcDbEntity
  8
Sichtbare_Kanten_TC_020513_DIN_
  6
Continuous
 62
     7
100
AcDbPolyline
 90
        2
 70
     0
 43
0.5
 10
230.607440963753
 20
114.2294154247918
 10
236.607440963754
 20
114.2294154247918
  0
LWPOLYLINE
  5
199
330
1F
100
AcDbEntity
  8
Sichtbare_Kanten_TC_020513_DIN_
  6
Continuous
 62
     7
100
AcDbPolyline
 90
        2
 70
     0
 43
0.5
 10
236.607440963754
 20
114.2294154247918
 10
236.607440963754
 20
141.9794154247917
  0
LWPOLYLINE
  5
19A
330
1F
100
AcDbEntity
  8
Sichtbare_Kanten_TC_020513_DIN_
  6
Continuous
 62
     7
100
AcDbPolyline
 90
        2
 70
     0
 43
0.5
 10
236.607440963754
 20
110.2294154247918
 10
230.607440963753
 20
110.2294154247918
  0
LWPOLYLINE
  5
19B
330
1F
100
AcDbEntity
  8
Sichtbare_Kanten_TC_020513_DIN_
  6
Continuous
 62
     7
100
AcDbPolyline
 90
        2
 70
     0
 43
0.5
 10
236.607440963754
 20
109.2294154247918
 10
236.607440963754
 20
110.2294154247918
  0
LWPOLYLINE
  5
19C
330
1F
100
AcDbEntity
  8
Sichtbare_Kanten_TC_020513_DIN_
  6
Continuous
 62
     7
100
AcDbPolyline
 90
        2
 70
     0
 43
0.5
 10
230.607440963753
 20
109.2294154247918
 10
236.607440963754
 20
109.2294154247918
  0
LWPOLYLINE
  5
19D
330
1F
100
AcDbEntity
  8
Sichtbare_Kanten_TC_020513_DIN_
  6
Continuous
 62
     7
100
AcDbPolyline
 90
        2
 70
     0
 43
0.5
 10
236.607440963754
 20
107.7294154247918
 10
230.607440963753
 20
107.7294154247918
  0
LWPOLYLINE
  5
19E
330
1F
100
AcDbEntity
  8
Sichtbare_Kanten_TC_020513_DIN_
  6
Continuous
 62
     7
100
AcDbPolyline
 90
        2
 70
     0
 43
0.5
 10
236.607440963754
 20
106.7294154247918
 10
236.607440963754
 20
107.7294154247918
  0
LWPOLYLINE
  5
19F
330
1F
100
AcDbEntity
  8
Sichtbare_Kanten_TC_020513_DIN_
  6
Continuous
 62
     7
100
AcDbPolyline
 90
        2
 70
     0
 43
0.5
 10
230.607440963753
 20
106.7294154247918
 10
236.607440963754
 20
106.7294154247918
  0
LWPOLYLINE
  5
1A0
330
1F
100
AcDbEntity
  8
Sichtbare_Kanten_TC_020513_DIN_
  6
Continuous
 62
     7
100
AcDbPolyline
 90
        2
 70
     0
 43
0.5
 10
236.607440963754
 20
105.2294154247918
 10
230.607440963753
 20
105.2294154247918
  0
LWPOLYLINE
  5
1A1
330
1F
100
AcDbEntity
  8
Sichtbare_Kanten_TC_020513_DIN_
  6
Continuous
 62
     7
100
AcDbPolyline
 90
        2
 70
     0
 43
0.5
 10
236.607440963754
 20
92.97941542479175
 10
236.607440963754
 20
105.2294154247918
  0
LWPOLYLINE
  5
1A2
330
1F
100
AcDbEntity
  8
Sichtbare_Kanten_TC_020513_DIN_
  6
Continuous
 62
     7
100
AcDbPolyline
 90
        2
 70
     0
 43
0.5
 10
236.607440963754
 20
92.97941542479175
 10
230.607440963753
 20
92.97941542479175
  0
LWPOLYLINE
  5
1A3
330
1F
100
AcDbEntity
  8
Sichtbare_Kanten_TC_020513_DIN_
  6
Continuous
 62
     7
100
AcDbPolyline
 90
        2
 70
     0
 43
0.5
 10
230.607440963753
 20
113.4294154247917
 10
216.607440963753
 20
113.4294154247917
  0
LWPOLYLINE
  5
1A4
330
1F
100
AcDbEntity
  8
Sichtbare_Kanten_TC_020513_DIN_
  6
Continuous
 62
     7
100
AcDbPolyline
 90
        2
 70
     0
 43
0.5
 10
236.607440963754
 20
112.7294154247918
 10
235.907440963754
 20
113.4294154247917
  0
LWPOLYLINE
  5
1A5
330
1F
100
AcDbEntity
  8
Sichtbare_Kanten_TC_020513_DIN_
  6
Continuous
 62
     7
100
AcDbPolyline
 90
        2
 70
     0
 43
0.5
 10
230.607440963753
 20
113.4294154247917
 10
235.907440963754
 20
113.4294154247917
  0
LWPOLYLINE
  5
1A6
330
1F
100
AcDbEntity
  8
Sichtbare_Kanten_TC_020513_DIN_
  6
Continuous
 62
     7
100
AcDbPolyline
 90
        2
 70
     0
 43
0.5
 10
236.607440963754
 20
114.2294154247918
 10
235.907440963754
 20
113.5294154247918
  0
LWPOLYLINE
  5
1A7
330
1F
100
AcDbEntity
  8
Sichtbare_Kanten_TC_020513_DIN_
  6
Continuous
 62
     7
100
AcDbPolyline
 90
        2
 70
     0
 43
0.5
 10
235.907440963754
 20
113.5294154247918
 10
230.607440963753
 20
113.5294154247918
  0
LWPOLYLINE
  5
1A8
330
1F
100
AcDbEntity
  8
Sichtbare_Kanten_TC_020513_DIN_
  6
Continuous
 62
     7
100
AcDbPolyline
 90
        2
 70
     0
 43
0.5
 10
216.607440963753
 20
113.5294154247918
 10
230.607440963753
 20
113.5294154247918
  0
LWPOLYLINE
  5
1A9
330
1F
100
AcDbEntity
  8
Sichtbare_Kanten_TC_020513_DIN_
  6
Continuous
 62
     7
100
AcDbPolyline
 90
        2
 70
     0
 43
0.5
 10
230.607440963753
 20
110.9294154247917
 10
216.607440963753
 20
110.9294154247917
  0
LWPOLYLINE
  5
1AA
330
1F
100
AcDbEntity
  8
Sichtbare_Kanten_TC_020513_DIN_
  6
Continuous
 62
     7
100
AcDbPolyline
 90
        2
 70
     0
 43
0.5
 10
236.607440963754
 20
110.2294154247918
 10
235.907440963754
 20
110.9294154247917
  0
LWPOLYLINE
  5
1AB
330
1F
100
AcDbEntity
  8
Sichtbare_Kanten_TC_020513_DIN_
  6
Continuous
 62
     7
100
AcDbPolyline
 90
        2
 70
     0
 43
0.5
 10
230.607440963753
 20
110.9294154247917
 10
235.907440963754
 20
110.9294154247917
  0
LWPOLYLINE
  5
1AC
330
1F
100
AcDbEntity
  8
Sichtbare_Kanten_TC_020513_DIN_
  6
Continuous
 62
     7
100
AcDbPolyline
 90
        2
 70
     0
 43
0.5
 10
236.607440963754
 20
111.7294154247918
 10
235.907440963754
 20
111.0294154247918
  0
LWPOLYLINE
  5
1AD
330
1F
100
AcDbEntity
  8
Sichtbare_Kanten_TC_020513_DIN_
  6
Continuous
 62
     7
100
AcDbPolyline
 90
        2
 70
     0
 43
0.5
 10
235.907440963754
 20
111.0294154247918
 10
230.607440963753
 20
111.0294154247918
  0
LWPOLYLINE
  5
1AE
330
1F
100
AcDbEntity
  8
Sichtbare_Kanten_TC_020513_DIN_
  6
Continuous
 62
     7
100
AcDbPolyline
 90
        2
 70
     0
 43
0.5
 10
216.607440963753
 20
111.0294154247918
 10
230.607440963753
 20
111.0294154247918
  0
LWPOLYLINE
  5
1AF
330
1F
100
AcDbEntity
  8
Sichtbare_Kanten_TC_020513_DIN_
  6
Continuous
 62
     7
100
AcDbPolyline
 90
        2
 70
     0
 43
0.5
 10
230.607440963753
 20
108.4294154247917
 10
216.607440963753
 20
108.4294154247917
  0
LWPOLYLINE
  5
1B0
330
1F
100
AcDbEntity
  8
Sichtbare_Kanten_TC_020513_DIN_
  6
Continuous
 62
     7
100
AcDbPolyline
 90
        2
 70
     0
 43
0.5
 10
236.607440963754
 20
107.7294154247918
 10
235.907440963754
 20
108.4294154247917
  0
LWPOLYLINE
  5
1B1
330
1F
100
AcDbEntity
  8
Sichtbare_Kanten_TC_020513_DIN_
  6
Continuous
 62
     7
100
AcDbPolyline
 90
        2
 70
     0
 43
0.5
 10
230.607440963753
 20
108.4294154247917
 10
235.907440963754
 20
108.4294154247917
  0
LWPOLYLINE
  5
1B2
330
1F
100
AcDbEntity
  8
Sichtbare_Kanten_TC_020513_DIN_
  6
Continuous
 62
     7
100
AcDbPolyline
 90
        2
 70
     0
 43
0.5
 10
236.607440963754
 20
109.2294154247918
 10
235.907440963754
 20
108.5294154247918
  0
LWPOLYLINE
  5
1B3
330
1F
100
AcDbEntity
  8
Sichtbare_Kanten_TC_020513_DIN_
  6
Continuous
 62
     7
100
AcDbPolyline
 90
        2
 70
     0
 43
0.5
 10
235.907440963754
 20
108.5294154247918
 10
230.607440963753
 20
108.5294154247918
  0
LWPOLYLINE
  5
1B4
330
1F
100
AcDbEntity
  8
Sichtbare_Kanten_TC_020513_DIN_
  6
Continuous
 62
     7
100
AcDbPolyline
 90
        2
 70
     0
 43
0.5
 10
216.607440963753
 20
108.5294154247918
 10
230.607440963753
 20
108.5294154247918
  0
LWPOLYLINE
  5
1B5
330
1F
100
AcDbEntity
  8
Sichtbare_Kanten_TC_020513_DIN_
  6
Continuous
 62
     7
100
AcDbPolyline
 90
        2
 70
     0
 43
0.5
 10
235.907440963754
 20
113.4294154247917
 10
235.907440963754
 20
113.5294154247918
  0
LWPOLYLINE
  5
1B6
330
1F
100
AcDbEntity
  8
Sichtbare_Kanten_TC_020513_DIN_
  6
Continuous
 62
     7
100
AcDbPolyline
 90
        2
 70
     0
 43
0.5
 10
235.907440963754
 20
110.9294154247917
 10
235.907440963754
 20
111.0294154247918
  0
LWPOLYLINE
  5
1B7
330
1F
100
AcDbEntity
  8
Sichtbare_Kanten_TC_020513_DIN_
  6
Continuous
 62
     7
100
AcDbPolyline
 90
        2
 70
     0
 43
0.5
 10
235.907440963754
 20
108.4294154247917
 10
235.907440963754
 20
108.5294154247918
  0
LWPOLYLINE
  5
1B8
330
1F
100
AcDbEntity
  8
Sichtbare_Kanten_TC_020513_DIN_
  6
Continuous
 62
     7
100
AcDbPolyline
 90
        2
 70
     0
 43
0.5
 10
230.607440963753
 20
105.9294154247917
 10
216.607440963753
 20
105.9294154247917
  0
LWPOLYLINE
  5
1B9
330
1F
100
AcDbEntity
  8
Sichtbare_Kanten_TC_020513_DIN_
  6
Continuous
 62
     7
100
AcDbPolyline
 90
        2
 70
     0
 43
0.5
 10
236.607440963754
 20
105.2294154247918
 10
235.907440963754
 20
105.9294154247917
  0
LWPOLYLINE
  5
1BA
330
1F
100
AcDbEntity
  8
Sichtbare_Kanten_TC_020513_DIN_
  6
Continuous
 62
     7
100
AcDbPolyline
 90
        2
 70
     0
 43
0.5
 10
230.607440963753
 20
105.9294154247917
 10
235.907440963754
 20
105.9294154247917
  0
LWPOLYLINE
  5
1BB
330
1F
100
AcDbEntity
  8
Sichtbare_Kanten_TC_020513_DIN_
  6
Continuous
 62
     7
100
AcDbPolyline
 90
        2
 70
     0
 43
0.5
 10
236.607440963754
 20
106.7294154247918
 10
235.907440963754
 20
106.0294154247918
  0
LWPOLYLINE
  5
1BC
330
1F
100
AcDbEntity
  8
Sichtbare_Kanten_TC_020513_DIN_
  6
Continuous
 62
     7
100
AcDbPolyline
 90
        2
 70
     0
 43
0.5
 10
235.907440963754
 20
106.0294154247918
 10
230.607440963753
 20
106.0294154247918
  0
LWPOLYLINE
  5
1BD
330
1F
100
AcDbEntity
  8
Sichtbare_Kanten_TC_020513_DIN_
  6
Continuous
 62
     7
100
AcDbPolyline
 90
        2
 70
     0
 43
0.5
 10
216.607440963753
 20
106.0294154247918
 10
230.607440963753
 20
106.0294154247918
  0
LWPOLYLINE
  5
1BE
330
1F
100
AcDbEntity
  8
Sichtbare_Kanten_TC_020513_DIN_
  6
Continuous
 62
     7
100
AcDbPolyline
 90
        2
 70
     0
 43
0.5
 10
235.907440963754
 20
105.9294154247917
 10
235.907440963754
 20
106.0294154247918
  0
LWPOLYLINE
  5
1F3
330
1F
100
AcDbEntity
  8
Sichtbare_Kanten_TC_020513_DIN_
  6
Continuous
 62
     7
100
AcDbPolyline
 90
        2
 70
     0
 43
0.5
 10
68.05408162235523
 20
144.9794154247917
 42
0.4142135623731
 10
65.05408162235523
 20
141.9794154247917
 42
0.4142135623731
  0
LWPOLYLINE
  5
1F4
330
1F
100
AcDbEntity
  8
Sichtbare_Kanten_TC_020513_DIN_
  6
Continuous
 62
     7
100
AcDbPolyline
 90
        2
 70
     0
 43
0.5
 10
103.3040816223552
 20
130.4230820359277
 42
0.57717933062338
 10
103.6789705698477
 20
130.2065116067498
 42
0.57717933062338
  0
LWPOLYLINE
  5
1F5
330
1F
100
AcDbEntity
  8
Sichtbare_Kanten_TC_020513_DIN_
  6
Continuous
 62
     7
100
AcDbPolyline
 90
        2
 70
     0
 43
0.5
 10
104.6789705698477
 20
130.7831782734168
 42
1.00000000000085
 10
104.4291926748628
 20
131.2163191317717
 42
1.00000000000085
  0
LWPOLYLINE
  5
1F6
330
1F
100
AcDbEntity
  8
Sichtbare_Kanten_TC_020513_DIN_
  6
Continuous
 62
     7
100
AcDbPolyline
 90
        2
 70
     0
 43
0.5
 10
104.5540816223552
 20
131.7294154247917
 42
1.0
 10
104.5540816223552
 20
132.2294154247917
 42
1.0
  0
LWPOLYLINE
  5
1F7
330
1F
100
AcDbEntity
  8
Sichtbare_Kanten_TC_020513_DIN_
  6
Continuous
 62
     7
100
AcDbPolyline
 90
        2
 70
     0
 43
0.5
 10
104.4291926748628
 20
132.7425117178117
 42
0.99999999999895
 10
104.6789705698477
 20
133.1756525761668
 42
0.99999999999895
  0
LWPOLYLINE
  5
1F8
330
1F
100
AcDbEntity
  8
Sichtbare_Kanten_TC_020513_DIN_
  6
Continuous
 62
     7
100
AcDbPolyline
 90
        2
 70
     0
 43
0.5
 10
103.6789705698477
 20
133.7523192428338
 42
0.57717933062323
 10
103.3040816223552
 20
133.5357488136557
 42
0.57717933062323
  0
LWPOLYLINE
  5
1F9
330
1F
100
AcDbEntity
  8
Sichtbare_Kanten_TC_020513_DIN_
  6
Continuous
 62
     7
100
AcDbPolyline
 90
        2
 70
     0
 43
0.5
 10
98.30408162235523
 20
130.9894154247918
 42
1.0
 10
98.80408162235523
 20
130.9894154247918
 42
1.0
  0
LWPOLYLINE
  5
1FA
330
1F
100
AcDbEntity
  8
Sichtbare_Kanten_TC_020513_DIN_
  6
Continuous
 62
     7
100
AcDbPolyline
 90
        2
 70
     0
 43
0.5
 10
98.80408162235523
 20
132.9694154247918
 42
1.0
 10
98.30408162235511
 20
132.9694154247918
 42
1.0
  0
LWPOLYLINE
  5
1FB
330
1F
100
AcDbEntity
  8
Sichtbare_Kanten_TC_020513_DIN_
  6
Continuous
 62
     7
100
AcDbPolyline
 90
        2
 70
     0
 43
0.5
 10
99.30408162235523
 20
130.4230820359277
 42
0.26808661587617
 10
99.42919267486275
 20
130.2065116067498
 42
0.26808661587617
  0
LWPOLYLINE
  5
1FC
330
1F
100
AcDbEntity
  8
Sichtbare_Kanten_TC_020513_DIN_
  6
Continuous
 62
     7
100
AcDbPolyline
 90
        2
 70
     0
 43
0.5
 10
101.4291926748628
 20
129.0531782734168
 42
0.99999999999898
 10
101.6789705698477
 20
129.4863191317718
 42
0.99999999999898
  0
LWPOLYLINE
  5
1FD
330
1F
100
AcDbEntity
  8
Sichtbare_Kanten_TC_020513_DIN_
  6
Continuous
 62
     7
100
AcDbPolyline
 90
        2
 70
     0
 43
0.5
 10
99.80408162235523
 20
133.5357488136557
 42
1.0
 10
99.30408162235523
 20
133.5357488136557
 42
1.0
  0
LWPOLYLINE
  5
1FE
330
1F
100
AcDbEntity
  8
Sichtbare_Kanten_TC_020513_DIN_
  6
Continuous
 62
     7
100
AcDbPolyline
 90
        2
 70
     0
 43
0.5
 10
100.3040816223552
 20
130.9894154247918
 42
1.0
 10
100.8040816223552
 20
130.9894154247918
 42
1.0
  0
LWPOLYLINE
  5
1FF
330
1F
100
AcDbEntity
  8
Sichtbare_Kanten_TC_020513_DIN_
  6
Continuous
 62
     7
100
AcDbPolyline
 90
        2
 70
     0
 43
0.5
 10
102.3040816223552
 20
129.8464153692607
 42
1.0
 10
102.8040816223552
 20
129.8464153692607
 42
1.0
  0
LWPOLYLINE
  5
200
330
1F
100
AcDbEntity
  8
Sichtbare_Kanten_TC_020513_DIN_
  6
Continuous
 62
     7
100
AcDbPolyline
 90
        2
 70
     0
 43
0.5
 10
102.8040816223552
 20
134.1124154803227
 42
0.72159827097434
 10
102.3537509273083
 20
134.2619735380198
 42
0.72159827097434
  0
LWPOLYLINE
  5
201
330
1F
100
AcDbEntity
  8
Sichtbare_Kanten_TC_020513_DIN_
  6
Continuous
 62
     7
100
AcDbPolyline
 90
        2
 70
     0
 43
0.5
 10
100.7544123174021
 20
134.2619735380198
 42
0.72159827097434
 10
100.3040816223552
 20
134.1124154803227
 42
0.72159827097434
  0
LWPOLYLINE
  5
202
330
1F
100
AcDbEntity
  8
Sichtbare_Kanten_TC_020513_DIN_
  6
Continuous
 62
     7
100
AcDbPolyline
 90
        2
 70
     0
 43
0.5
 10
236.607440963754
 20
141.9794154247917
 42
0.4142135623731
 10
233.607440963754
 20
144.9794154247917
 42
0.4142135623731
  0
LWPOLYLINE
  5
203
330
1F
100
AcDbEntity
  8
Sichtbare_Kanten_TC_020513_DIN_
  6
Continuous
 62
     7
100
AcDbPolyline
 90
        2
 70
     0
 43
0.5
 10
196.607440963754
 20
144.9794154247917
 42
0.4142135623731
 10
193.607440963754
 20
141.9794154247917
 42
0.4142135623731
  0
LWPOLYLINE
  5
204
330
1F
100
AcDbEntity
  8
Sichtbare_Kanten_TC_020513_DIN_
  6
Continuous
 62
     7
100
AcDbPolyline
 90
        2
 70
     1
 43
0.5
 10
85.55408162235523
 20
99.47941542479175
 42
1.0
 10
90.55408162235523
 20
99.47941542479175
 42
1.0
  0
LWPOLYLINE
  5
205
330
1F
100
AcDbEntity
  8
Sichtbare_Kanten_TC_020513_DIN_
  6
Continuous
 62
     7
100
AcDbPolyline
 90
        2
 70
     1
 43
0.5
 10
84.05408162235523
 20
99.47941542479175
 42
1.0
 10
92.05408162235523
 20
99.47941542479175
 42
1.0
  0
LWPOLYLINE
  5
206
330
1F
100
AcDbEntity
  8
Sichtbare_Kanten_TC_020513_DIN_
  6
Continuous
 62
     7
100
AcDbPolyline
 90
        2
 70
     1
 43
0.5
 10
112.5540816223551
 20
99.47941542479175
 42
1.0
 10
117.5540816223551
 20
99.47941542479175
 42
1.0
  0
LWPOLYLINE
  5
207
330
1F
100
AcDbEntity
  8
Sichtbare_Kanten_TC_020513_DIN_
  6
Continuous
 62
     7
100
AcDbPolyline
 90
        2
 70
     1
 43
0.5
 10
111.0540816223551
 20
99.47941542479175
 42
1.0
 10
119.0540816223551
 20
99.47941542479175
 42
1.0
  0
SPLINE
  5
208
330
1F
100
AcDbEntity
  8
Sichtbare_Kanten_TC_020513_DIN_
  6
Continuous
 62
     7
100
AcDbSpline
210
0.0
220
0.0
230
1.0
 70
     8
 71
     3
 72
    15
 73
    11
 74
     9
 42
0.000000001
 43
0.0000000001
 44
0.00000001
 40
0.0
 40
0.0
 40
0.0
 40
0.0
 40
2.603580018146279
 40
5.207187971421009
 40
6.51558311085863
 40
7.823950166537987
 40
9.131292233073797
 40
10.4387375525891
 40
12.31804609959552
 40
14.19581130096583
 40
14.19581130096583
 40
14.19581130096583
 40
14.19581130096583
 10
221.9684162487021
 20
146.6948543694818
 30
0.0
 10
221.1696427591616
 20
147.0392332753077
 30
0.0
 10
219.5720872042989
 20
147.7279947682735
 30
0.0
 10
217.4241441545604
 20
148.1479328978434
 30
0.0
 10
215.6890409042535
 20
148.2872634834828
 30
0.0
 10
214.3792417270888
 20
148.2805138926332
 30
0.0
 10
213.0748905186792
 20
148.1661945458602
 30
0.0
 10
211.5981652821809
 20
147.9085837634769
 30
0.0
 10
209.9630808172309
 20
147.4627864954626
 30
0.0
 10
208.818513999869
 20
146.9507616387806
 30
0.0
 10
208.246465678848
 20
146.6948543694828
 30
0.0
 11
221.9684162487021
 21
146.6948543694818
 31
0.0
 11
219.5423314081427
 21
147.6397042308402
 31
0.0
 11
216.9924665139135
 21
148.1659773567644
 31
0.0
 11
215.6881083049589
 21
148.2686784056881
 31
0.0
 11
214.3797555188298
 21
148.2625676493086
 31
0.0
 11
213.0774628400004
 21
148.147776274796
 31
0.0
 11
211.7891548777639
 21
147.9248954542071
 31
0.0
 11
209.9796985393542
 21
147.417284993705
 31
0.0
 11
208.246465678848
 21
146.6948543694828
 31
0.0
  0
LWPOLYLINE
  5
209
330
1F
100
AcDbEntity
  8
Sichtbare_Kanten_TC_020513_DIN_
  6
Continuous
 62
     7
100
AcDbPolyline
 90
        9
 70
     0
 43
0.5
 10
200.00060321429
 20
144.9794135174427
 10
201.181168571499
 20
145.0086436352408
 10
202.325483575848
 20
145.0949368557608
 10
203.4302675876891
 20
145.2362237057368
 10
204.492241159467
 20
145.4304251751578
 10
205.508127823858
 20
145.6754670223868
 10
206.474646345167
 20
145.9692702374138
 10
207.3885190639791
 20
146.3097558102288
 10
208.24646593669
 20
146.6948542675657
  0
LWPOLYLINE
  5
20A
330
1F
100
AcDbEntity
  8
Sichtbare_Kanten_TC_020513_DIN_
  6
Continuous
 62
     7
100
AcDbPolyline
 90
        9
 70
     0
 43
0.5
 10
221.9684159908591
 20
146.6948542675657
 10
222.82636286357
 20
146.3097558102288
 10
223.7402355823811
 20
145.9692702374138
 10
224.706754103689
 20
145.6754670223868
 10
225.722640768079
 20
145.4304251751578
 10
226.784614339856
 20
145.2362237057368
 10
227.8893983516961
 20
145.0949368557608
 10
229.033713356045
 20
145.0086436352408
 10
230.2142787132531
 20
144.9794135174427
  0
LWPOLYLINE
  5
20B
330
1F
100
AcDbEntity
  8
0
  6
Continuous
 62
     7
 60
     1
100
AcDbPolyline
 90
        2
 70
     0
 43
0.0
 10
-1756.104848900709
 20
3121.471926673017
 10
-1720.021144589957
 20
3098.031098144886
  0
LWPOLYLINE
  5
20C
330
1F
100
AcDbEntity
  8
0
  6
Continuous
 62
     7
 60
     1
100
AcDbPolyline
 90
        2
 70
     0
 43
0.0
 10
-1639.710629918418
 20
3121.471926673017
 10
-1603.626925607677
 20
3103.031098144886
  0
LWPOLYLINE
  5
20D
330
1F
100
AcDbEntity
  8
0
  6
Continuous
 62
     7
 60
     1
100
AcDbPolyline
 90
        2
 70
     0
 43
0.0
 10
-1354.710629918416
 20
3121.471926673017
 10
-1318.626925607668
 20
3130.931098144876
  0
LWPOLYLINE
  5
20E
330
1F
100
AcDbEntity
  8
0
  6
Continuous
 62
     7
 60
     1
100
AcDbPolyline
 90
        2
 70
     0
 43
0.0
 10
-1749.877429545869
 20
3117.2974811085
 10
-1713.793725235118
 20
3093.85665258037
  0
LWPOLYLINE
  5
20F
330
1F
100
AcDbEntity
  8
0
  6
Continuous
 62
     7
 60
     1
100
AcDbPolyline
 90
        2
 70
     0
 43
0.0
 10
-1633.483210563578
 20
3117.2974811085
 10
-1597.399506252838
 20
3098.85665258037
  0
LWPOLYLINE
  5
210
330
1F
100
AcDbEntity
  8
0
  6
Continuous
 62
     7
 60
     1
100
AcDbPolyline
 90
        2
 70
     0
 43
0.0
 10
-1348.483210563577
 20
3117.2974811085
 10
-1312.399506252829
 20
3126.75665258036
  0
LWPOLYLINE
  5
211
330
1F
100
AcDbEntity
  8
0
  6
Continuous
 62
     7
 60
     1
100
AcDbPolyline
 90
        2
 70
     0
 43
0.0
 10
-1749.877429545869
 20
3117.2974811085
 10
-1713.793725235118
 20
3093.85665258037
  0
LWPOLYLINE
  5
212
330
1F
100
AcDbEntity
  8
0
  6
Continuous
 62
     7
 60
     1
100
AcDbPolyline
 90
        2
 70
     0
 43
0.0
 10
-1633.483210563578
 20
3117.2974811085
 10
-1597.399506252838
 20
3098.85665258037
  0
LWPOLYLINE
  5
213
330
1F
100
AcDbEntity
  8
0
  6
Continuous
 62
     7
 60
     1
100
AcDbPolyline
 90
        2
 70
     0
 43
0.0
 10
-1348.483210563577
 20
3117.2974811085
 10
-1312.399506252829
 20
3126.75665258036
  0
LWPOLYLINE
  5
214
330
1F
100
AcDbEntity
  8
0
  6
Continuous
 62
     7
 60
     1
100
AcDbPolyline
 90
        2
 70
     0
 43
0.0
 10
-1768.151847272609
 20
3115.964929507814
 10
-1732.068142961857
 20
3092.524100979683
  0
LWPOLYLINE
  5
215
330
1F
100
AcDbEntity
  8
0
  6
Continuous
 62
     7
 60
     1
100
AcDbPolyline
 90
        2
 70
     0
 43
0.0
 10
-1651.757628290317
 20
3115.964929507814
 10
-1615.673923979577
 20
3097.524100979683
  0
LWPOLYLINE
  5
216
330
1F
100
AcDbEntity
  8
0
  6
Continuous
 62
     7
 60
     1
100
AcDbPolyline
 90
        2
 70
     0
 43
0.0
 10
-1366.757628290316
 20
3115.964929507814
 10
-1330.673923979568
 20
3125.424100979673
  0
LWPOLYLINE
  5
217
330
1F
100
AcDbEntity
  8
0
  6
Continuous
 62
     7
 60
     1
100
AcDbPolyline
 90
        2
 70
     0
 43
0.0
 10
-1761.924427917769
 20
3111.790483943297
 10
-1725.840723607018
 20
3088.349655415168
  0
LWPOLYLINE
  5
218
330
1F
100
AcDbEntity
  8
0
  6
Continuous
 62
     7
 60
     1
100
AcDbPolyline
 90
        2
 70
     0
 43
0.0
 10
-1645.530208935478
 20
3111.790483943297
 10
-1609.446504624738
 20
3093.349655415168
  0
LWPOLYLINE
  5
219
330
1F
100
AcDbEntity
  8
0
  6
Continuous
 62
     7
 60
     1
100
AcDbPolyline
 90
        2
 70
     0
 43
0.0
 10
-1360.530208935477
 20
3111.790483943297
 10
-1324.446504624729
 20
3121.249655415158
  0
LWPOLYLINE
  5
21A
330
1F
100
AcDbEntity
  8
0
  6
Continuous
 62
     7
 60
     1
100
AcDbPolyline
 90
        2
 70
     0
 43
0.0
 10
-1761.924427917769
 20
3111.790483943297
 10
-1725.840723607018
 20
3088.349655415168
  0
LWPOLYLINE
  5
21B
330
1F
100
AcDbEntity
  8
0
  6
Continuous
 62
     7
 60
     1
100
AcDbPolyline
 90
        2
 70
     0
 43
0.0
 10
-1645.530208935478
 20
3111.790483943297
 10
-1609.446504624738
 20
3093.349655415168
  0
LWPOLYLINE
  5
21C
330
1F
100
AcDbEntity
  8
0
  6
Continuous
 62
     7
 60
     1
100
AcDbPolyline
 90
        2
 70
     0
 43
0.0
 10
-1360.530208935477
 20
3111.790483943297
 10
-1324.446504624729
 20
3121.249655415158
  0
LWPOLYLINE
  5
21D
330
1F
100
AcDbEntity
  8
0
  6
Continuous
 62
     7
 60
     1
100
AcDbPolyline
 90
        2
 70
     0
 43
0.0
 10
-2021.713458422446
 20
2881.628959171573
 10
-1985.629754111694
 20
2858.188130643442
  0
LWPOLYLINE
  5
21E
330
1F
100
AcDbEntity
  8
0
  6
Continuous
 62
     7
 60
     1
100
AcDbPolyline
 90
        2
 70
     0
 43
0.0
 10
-1905.319239440155
 20
2881.628959171573
 10
-1869.235535129414
 20
2863.188130643442
  0
LWPOLYLINE
  5
21F
330
1F
100
AcDbEntity
  8
0
  6
Continuous
 62
     7
 60
     1
100
AcDbPolyline
 90
        2
 70
     0
 43
0.0
 10
-1620.319239440153
 20
2881.628959171573
 10
-1584.235535129405
 20
2891.088130643432
  0
LWPOLYLINE
  5
220
330
1F
100
AcDbEntity
  8
0
  6
Continuous
 62
     7
 60
     1
100
AcDbPolyline
 90
        2
 70
     0
 43
0.0
 10
-2015.486039067606
 20
2877.454513607056
 10
-1979.402334756855
 20
2854.013685078926
  0
LWPOLYLINE
  5
221
330
1F
100
AcDbEntity
  8
0
  6
Continuous
 62
     7
 60
     1
100
AcDbPolyline
 90
        2
 70
     0
 43
0.0
 10
-1899.091820085315
 20
2877.454513607056
 10
-1863.008115774575
 20
2859.013685078926
  0
LWPOLYLINE
  5
222
330
1F
100
AcDbEntity
  8
0
  6
Continuous
 62
     7
 60
     1
100
AcDbPolyline
 90
        2
 70
     0
 43
0.0
 10
-1614.091820085314
 20
2877.454513607056
 10
-1578.008115774566
 20
2886.913685078916
  0
LWPOLYLINE
  5
223
330
1F
100
AcDbEntity
  8
0
  6
Continuous
 62
     7
 60
     1
100
AcDbPolyline
 90
        2
 70
     0
 43
0.0
 10
-2015.486039067606
 20
2877.454513607056
 10
-1979.402334756855
 20
2854.013685078926
  0
LWPOLYLINE
  5
224
330
1F
100
AcDbEntity
  8
0
  6
Continuous
 62
     7
 60
     1
100
AcDbPolyline
 90
        2
 70
     0
 43
0.0
 10
-1899.091820085315
 20
2877.454513607056
 10
-1863.008115774575
 20
2859.013685078926
  0
LWPOLYLINE
  5
225
330
1F
100
AcDbEntity
  8
0
  6
Continuous
 62
     7
 60
     1
100
AcDbPolyline
 90
        2
 70
     0
 43
0.0
 10
-1614.091820085314
 20
2877.454513607056
 10
-1578.008115774566
 20
2886.913685078916
  0
LWPOLYLINE
  5
226
330
1F
100
AcDbEntity
  8
0
  6
Continuous
 62
     7
 60
     1
100
AcDbPolyline
 90
        2
 70
     0
 43
0.0
 10
-2033.760456794346
 20
2876.12196200637
 10
-1997.676752483594
 20
2852.681133478239
  0
LWPOLYLINE
  5
227
330
1F
100
AcDbEntity
  8
0
  6
Continuous
 62
     7
 60
     1
100
AcDbPolyline
 90
        2
 70
     0
 43
0.0
 10
-1917.366237812054
 20
2876.12196200637
 10
-1881.282533501314
 20
2857.681133478239
  0
LWPOLYLINE
  5
228
330
1F
100
AcDbEntity
  8
0
  6
Continuous
 62
     7
 60
     1
100
AcDbPolyline
 90
        2
 70
     0
 43
0.0
 10
-1632.366237812053
 20
2876.12196200637
 10
-1596.282533501305
 20
2885.581133478229
  0
LWPOLYLINE
  5
229
330
1F
100
AcDbEntity
  8
0
  6
Continuous
 62
     7
 60
     1
100
AcDbPolyline
 90
        2
 70
     0
 43
0.0
 10
-2027.533037439506
 20
2871.947516441853
 10
-1991.449333128755
 20
2848.506687913724
  0
LWPOLYLINE
  5
22A
330
1F
100
AcDbEntity
  8
0
  6
Continuous
 62
     7
 60
     1
100
AcDbPolyline
 90
        2
 70
     0
 43
0.0
 10
-1911.138818457215
 20
2871.947516441853
 10
-1875.055114146475
 20
2853.506687913724
  0
LWPOLYLINE
  5
22B
330
1F
100
AcDbEntity
  8
0
  6
Continuous
 62
     7
 60
     1
100
AcDbPolyline
 90
        2
 70
     0
 43
0.0
 10
-1626.138818457214
 20
2871.947516441853
 10
-1590.055114146466
 20
2881.406687913714
  0
LWPOLYLINE
  5
22C
330
1F
100
AcDbEntity
  8
0
  6
Continuous
 62
     7
 60
     1
100
AcDbPolyline
 90
        2
 70
     0
 43
0.0
 10
-2027.533037439506
 20
2871.947516441853
 10
-1991.449333128755
 20
2848.506687913724
  0
LWPOLYLINE
  5
22D
330
1F
100
AcDbEntity
  8
0
  6
Continuous
 62
     7
 60
     1
100
AcDbPolyline
 90
        2
 70
     0
 43
0.0
 10
-1911.138818457215
 20
2871.947516441853
 10
-1875.055114146475
 20
2853.506687913724
  0
LWPOLYLINE
  5
22E
330
1F
100
AcDbEntity
  8
0
  6
Continuous
 62
     7
 60
     1
100
AcDbPolyline
 90
        2
 70
     0
 43
0.0
 10
-1626.138818457214
 20
2871.947516441853
 10
-1590.055114146466
 20
2881.406687913714
  0
DIMENSION
  5
23A
330
1F
100
AcDbEntity
  8
1
100
AcDbDimension
  2
*D3
 10
156.9717356733245
 20
124.9364754350527
 30
0.0
 11
156.5535515163399
 21
137.9104943619906
 31
0.0
 70
    33
  1
M25
 71
     5
 42
-1.0
 53
-72.51161264761693
  3
ME10_DIM_10
100
AcDbAlignedDimension
 13
140.6582756216969
 23
146.0080535165536
 33
0.0
 14
148.1710890808995
 24
122.1636031276264
 34
0.0
  0
DIMENSION
  5
245
330
1F
100
AcDbEntity
  8
1
100
AcDbDimension
  2
*D4
 10
255.386695585433
 20
92.97941542479171
 30
0.0
 11
251.886695585433
 21
118.9794154247917
 31
0.0
 70
    33
  1
<>
 71
     5
 42
-1.0
 53
89.99999999999889
  3
ME10_DIM_11
100
AcDbAlignedDimension
 13
230.607440963754
 23
144.9794154247917
 33
0.0
 14
230.607440963753
 24
92.97941542479175
 34
0.0
  0
DIMENSION
  5
250
330
1F
100
AcDbEntity
  8
1
100
AcDbDimension
  2
*D5
 10
193.607440963754
 20
75.2420423362333
 30
0.0
 11
215.107440963754
 21
78.7420423362333
 31
0.0
 70
    33
  1
<>
 71
     5
 42
-1.0
 53
0.00013888888889
  3
ME10_DIM_12
100
AcDbAlignedDimension
 13
236.607440963754
 23
92.97941542479175
 33
0.0
 14
193.607440963754
 24
92.97941542479175
 34
0.0
  0
DIMENSION
  5
25B
330
1F
100
AcDbEntity
  8
1
100
AcDbDimension
  2
*D6
 10
65.05408162235526
 20
75.2420423362333
 30
0.0
 11
101.5540816223552
 21
78.7420423362333
 31
0.0
 70
    33
  1
<>
 71
     5
 42
-1.0
 53
0.00013888888889
  3
ME10_DIM_13
100
AcDbAlignedDimension
 13
138.0540816223551
 23
92.97941542479175
 33
0.0
 14
65.05408162235523
 24
92.97941542479175
 34
0.0
  0
ENDSEC
  0
SECTION
  2
OBJECTS
  0
DICTIONARY
  5
C
330
0
100
AcDbDictionary
281
     1
  3
ACAD_GROUP
350
D
  3
ACAD_LAYOUT
350
1A
  3
ACAD_MATERIAL
350
3B
  3
ACAD_MLEADERSTYLE
350
25E
  3
ACAD_MLINESTYLE
350
17
  3
ACAD_PLOTSETTINGS
350
19
  3
ACAD_PLOTSTYLENAME
350
E
  3
ACAD_VISUALSTYLE
350
2A
  3
AcDbVariableDictionary
350
25C
  0
DICTIONARY
  5
D
102
{ACAD_REACTORS
330
C
102
}
330
C
100
AcDbDictionary
281
     1
  0
DICTIONARY
  5
1A
102
{ACAD_REACTORS
330
C
102
}
330
C
100
AcDbDictionary
281
     1
  3
Layout1
350
1E
  3
Layout2
350
26
  3
Model
350
22
  0
DICTIONARY
  5
3B
102
{ACAD_REACTORS
330
C
102
}
330
C
100
AcDbDictionary
281
     1
  3
ByBlock
350
3D
  3
ByLayer
350
3C
  3
Global
350
3E
  0
DICTIONARY
  5
25E
102
{ACAD_REACTORS
330
C
102
}
330
C
100
AcDbDictionary
281
     1
  0
DICTIONARY
  5
17
102
{ACAD_REACTORS
330
C
102
}
330
C
100
AcDbDictionary
281
     1
  3
Standard
350
18
  0
DICTIONARY
  5
19
102
{ACAD_REACTORS
330
C
102
}
330
C
100
AcDbDictionary
281
     1
  0
ACDBDICTIONARYWDFLT
  5
E
102
{ACAD_REACTORS
330
C
102
}
330
C
100
AcDbDictionary
281
     1
  3
Normal
350
F
100
AcDbDictionaryWithDefault
340
F
  0
DICTIONARY
  5
2A
102
{ACAD_REACTORS
330
C
102
}
330
C
100
AcDbDictionary
281
     1
  3
2dWireframe
350
2F
  3
3D Hidden
350
31
  3
3dWireframe
350
30
  3
Basic
350
32
  3
Brighten
350
36
  3
ColorChange
350
3A
  3
Conceptual
350
34
  3
Dim
350
35
  3
Facepattern
350
39
  3
Flat
350
2B
  3
FlatWithEdges
350
2C
  3
Gouraud
350
2D
  3
GouraudWithEdges
350
2E
  3
Linepattern
350
38
  3
Realistic
350
33
  3
Thicken
350
37
  0
DICTIONARY
  5
25C
102
{ACAD_REACTORS
330
C
102
}
330
C
100
AcDbDictionary
281
     1
  3
DIMASSOC
350
25F
  3
HIDETEXT
350
260
  0
LAYOUT
  5
1E
102
{ACAD_REACTORS
330
1A
102
}
330
1A
100
AcDbPlotSettings
  1

  2
none_device
  4

  6

 40
0.0
 41
0.0
 42
0.0
 43
0.0
 44
0.0
 45
0.0
 46
0.0
 47
0.0
 48
0.0
 49
0.0
140
0.0
141
0.0
142
1.0
143
1.0
 70
   688
 72
     0
 73
     0
 74
     5
  7

 75
    16
147
1.0
148
0.0
149
0.0
100
AcDbLayout
  1
Layout1
 70
     1
 71
     1
 10
0.0
 20
0.0
 11
12.0
 21
9.0
 12
0.0
 22
0.0
 32
0.0
 14
1.00000000000000E+20
 24
1.00000000000000E+20
 34
1.00000000000000E+20
 15
-1.00000000000000E+20
 25
-1.00000000000000E+20
 35
-1.00000000000000E+20
146
0.0
 13
0.0
 23
0.0
 33
0.0
 16
1.0
 26
0.0
 36
0.0
 17
0.0
 27
1.0
 37
0.0
 76
     0
330
1B
  0
LAYOUT
  5
26
102
{ACAD_REACTORS
330
1A
102
}
330
1A
100
AcDbPlotSettings
  1

  2
none_device
  4

  6

 40
0.0
 41
0.0
 42
0.0
 43
0.0
 44
0.0
 45
0.0
 46
0.0
 47
0.0
 48
0.0
 49
0.0
140
0.0
141
0.0
142
1.0
143
1.0
 70
   688
 72
     0
 73
     0
 74
     5
  7

 75
    16
147
1.0
148
0.0
149
0.0
100
AcDbLayout
  1
Layout2
 70
     1
 71
     2
 10
0.0
 20
0.0
 11
0.0
 21
0.0
 12
0.0
 22
0.0
 32
0.0
 14
0.0
 24
0.0
 34
0.0
 15
0.0
 25
0.0
 35
0.0
146
0.0
 13
0.0
 23
0.0
 33
0.0
 16
1.0
 26
0.0
 36
0.0
 17
0.0
 27
1.0
 37
0.0
 76
     0
330
23
  0
LAYOUT
  5
22
102
{ACAD_REACTORS
330
1A
102
}
330
1A
100
AcDbPlotSettings
  1

  2
none_device
  4

  6

 40
0.0
 41
0.0
 42
0.0
 43
0.0
 44
0.0
 45
0.0
 46
0.0
 47
0.0
 48
0.0
 49
0.0
140
0.0
141
0.0
142
1.0
143
1.0
 70
  1712
 72
     0
 73
     0
 74
     0
  7

 75
     0
147
1.0
148
0.0
149
0.0
100
AcDbLayout
  1
Model
 70
     1
 71
     0
 10
0.0
 20
0.0
 11
12.0
 21
9.0
 12
0.0
 22
0.0
 32
0.0
 14
0.0
 24
0.0
 34
0.0
 15
297.0000000000002
 25
210.0000000000002
 35
0.0
146
0.0
 13
0.0
 23
0.0
 33
0.0
 16
1.0
 26
0.0
 36
0.0
 17
0.0
 27
1.0
 37
0.0
 76
     0
330
1F
331
29
  0
MATERIAL
  5
3D
102
{ACAD_REACTORS
330
3B
102
}
102
{ACAD_XDICTIONARY
360
283
102
}
330
3B
100
AcDbMaterial
  1
ByBlock
  0
MATERIAL
  5
3C
102
{ACAD_REACTORS
330
3B
102
}
102
{ACAD_XDICTIONARY
360
281
102
}
330
3B
100
AcDbMaterial
  1
ByLayer
  0
MATERIAL
  5
3E
102
{ACAD_REACTORS
330
3B
102
}
102
{ACAD_XDICTIONARY
360
285
102
}
330
3B
100
AcDbMaterial
  1
Global
  0
MLINESTYLE
  5
18
102
{ACAD_REACTORS
330
17
102
}
330
17
100
AcDbMlineStyle
  2
Standard
 70
     0
  3

 62
   256
 51
90.0
 52
90.0
 71
     2
 49
0.5
 62
   256
  6
BYLAYER
 49
-0.5
 62
   256
  6
BYLAYER
  0
ACDBPLACEHOLDER
  5
F
102
{ACAD_REACTORS
330
E
102
}
330
E
  0
VISUALSTYLE
  5
2F
102
{ACAD_REACTORS
330
2A
102
}
102
{ACAD_XDICTIONARY
360
269
102
}
330
2A
100
AcDbVisualStyle
  2
2dWireframe
 70
     4
 71
     0
 72
     2
 73
     0
 90
        0
 40
-0.6
 41
-30.0
 62
     5
 63
     7
 74
     1
 91
        4
 64
     7
 65
   257
 75
     1
175
     1
 42
1.0
 92
        0
 66
   257
 43
1.0
 76
     1
 77
     6
 78
     2
 67
     7
 79
     5
170
     0
171
     0
290
     0
174
     0
 93
        1
 44
0.0
173
     0
291
     0
 45
0.0
1001
ACAD
1000
AcDbSavedByObjectVersion
1070
     0
  0
VISUALSTYLE
  5
31
102
{ACAD_REACTORS
330
2A
102
}
102
{ACAD_XDICTIONARY
360
26D
102
}
330
2A
100
AcDbVisualStyle
  2
3D Hidden
 70
     6
 71
     1
 72
     2
 73
     2
 90
        0
 40
-0.6
 41
-30.0
 62
     5
 63
     7
 74
     2
 91
        2
 64
     7
 65
   257
 75
     2
175
     1
 42
40.0
 92
        0
 66
   257
 43
1.0
 76
     1
 77
     6
 78
     2
 67
     7
 79
     3
170
     0
171
     0
290
     0
174
     0
 93
        1
 44
0.0
173
     0
291
     0
 45
0.0
1001
ACAD
1000
AcDbSavedByObjectVersion
1070
     0
  0
VISUALSTYLE
  5
30
102
{ACAD_REACTORS
330
2A
102
}
102
{ACAD_XDICTIONARY
360
26B
102
}
330
2A
100
AcDbVisualStyle
  2
3dWireframe
 70
     5
 71
     0
 72
     2
 73
     0
 90
        0
 40
-0.6
 41
-30.0
 62
     5
 63
     7
 74
     1
 91
        4
 64
     7
 65
   257
 75
     1
175
     1
 42
1.0
 92
        0
 66
   257
 43
1.0
 76
     1
 77
     6
 78
     2
 67
     7
 79
     5
170
     0
171
     0
290
     0
174
     0
 93
        1
 44
0.0
173
     0
291
     0
 45
0.0
1001
ACAD
1000
AcDbSavedByObjectVersion
1070
     0
  0
VISUALSTYLE
  5
32
102
{ACAD_REACTORS
330
2A
102
}
102
{ACAD_XDICTIONARY
360
26F
102
}
330
2A
100
AcDbVisualStyle
  2
Basic
 70
     7
 71
     1
 72
     0
 73
     1
 90
        0
 40
-0.6
 41
-30.0
 62
     5
 63
     7
 74
     0
 91
        4
 64
     7
 65
   257
 75
     1
175
     1
 42
1.0
 92
        8
 66
     7
 43
1.0
 76
     1
 77
     6
 78
     2
 67
     7
 79
     5
170
     0
171
     0
290
     0
174
     0
 93
        1
 44
0.0
173
     0
291
     1
 45
0.0
1001
ACAD
1000
AcDbSavedByObjectVersion
1070
     0
  0
VISUALSTYLE
  5
36
102
{ACAD_REACTORS
330
2A
102
}
102
{ACAD_XDICTIONARY
360
277
102
}
330
2A
100
AcDbVisualStyle
  2
Brighten
 70
    12
 71
     2
 72
     2
 73
     0
 90
        0
 40
-0.6
 41
-30.0
 62
     5
 63
     7
 74
     1
 91
        4
 64
     7
 65
   257
 75
     1
175
     1
 42
1.0
 92
        8
 66
     7
 43
1.0
 76
     1
 77
     6
 78
     2
 67
     7
 79
     5
170
     0
171
     0
290
     0
174
     0
 93
        1
 44
50.0
173
     0
291
     1
 45
0.0
1001
ACAD
1000
AcDbSavedByObjectVersion
1070
     0
  0
VISUALSTYLE
  5
3A
102
{ACAD_REACTORS
330
2A
102
}
102
{ACAD_XDICTIONARY
360
27F
102
}
330
2A
100
AcDbVisualStyle
  2
ColorChange
 70
    16
 71
     2
 72
     2
 73
     3
 90
        0
 40
-0.6
 41
-30.0
 62
     5
 63
     8
 74
     1
 91
        4
 64
     7
 65
   257
 75
     1
175
     1
 42
1.0
 92
        8
 66
     8
 43
1.0
 76
     1
 77
     6
 78
     2
 67
     7
 79
     5
170
     0
171
     0
290
     0
174
     0
 93
        1
 44
0.0
173
     0
291
     1
 45
0.0
1001
ACAD
1000
AcDbSavedByObjectVersion
1070
     0
  0
VISUALSTYLE
  5
34
102
{ACAD_REACTORS
330
2A
102
}
102
{ACAD_XDICTIONARY
360
273
102
}
330
2A
100
AcDbVisualStyle
  2
Conceptual
 70
     9
 71
     3
 72
     2
 73
     0
 90
        0
 40
-0.6
 41
-30.0
 62
     5
 63
     7
 74
     2
 91
        2
 64
     7
 65
   257
 75
     1
175
     1
 42
40.0
 92
        8
 66
     7
 43
1.0
 76
     1
 77
     6
 78
     2
 67
     7
 79
     3
170
     0
171
     0
290
     0
174
     0
 93
        1
 44
0.0
173
     0
291
     0
 45
0.0
1001
ACAD
1000
AcDbSavedByObjectVersion
1070
     0
  0
VISUALSTYLE
  5
35
102
{ACAD_REACTORS
330
2A
102
}
102
{ACAD_XDICTIONARY
360
275
102
}
330
2A
100
AcDbVisualStyle
  2
Dim
 70
    11
 71
     2
 72
     2
 73
     0
 90
        0
 40
-0.6
 41
-30.0
 62
     5
 63
     7
 74
     1
 91
        4
 64
     7
 65
   257
 75
     1
175
     1
 42
1.0
 92
        8
 66
     7
 43
1.0
 76
     1
 77
     6
 78
     2
 67
     7
 79
     5
170
     0
171
     0
290
     0
174
     0
 93
        1
 44
-50.0
173
     0
291
     1
 45
0.0
1001
ACAD
1000
AcDbSavedByObjectVersion
1070
     0
  0
VISUALSTYLE
  5
39
102
{ACAD_REACTORS
330
2A
102
}
102
{ACAD_XDICTIONARY
360
27D
102
}
330
2A
100
AcDbVisualStyle
  2
Facepattern
 70
    15
 71
     2
 72
     2
 73
     0
 90
        0
 40
-0.6
 41
-30.0
 62
     5
 63
     7
 74
     1
 91
        4
 64
     7
 65
   257
 75
     1
175
     1
 42
1.0
 92
        8
 66
     7
 43
1.0
 76
     1
 77
     6
 78
     2
 67
     7
 79
     5
170
     0
171
     0
290
     0
174
     0
 93
        1
 44
0.0
173
     0
291
     1
 45
0.0
1001
ACAD
1000
AcDbSavedByObjectVersion
1070
     0
  0
VISUALSTYLE
  5
2B
102
{ACAD_REACTORS
330
2A
102
}
102
{ACAD_XDICTIONARY
360
261
102
}
330
2A
100
AcDbVisualStyle
  2
Flat
 70
     0
 71
     2
 72
     1
 73
     1
 90
        2
 40
-0.6
 41
30.0
 62
     5
 63
     7
 74
     0
 91
        4
 64
     7
 65
   257
 75
     1
175
     1
 42
1.0
 92
        8
 66
     7
 43
1.0
 76
     1
 77
     6
 78
     2
 67
     7
 79
     5
170
     0
171
     0
290
     0
174
     0
 93
       13
 44
0.0
173
     0
291
     1
 45
0.0
1001
ACAD
1000
AcDbSavedByObjectVersion
1070
     0
  0
VISUALSTYLE
  5
2C
102
{ACAD_REACTORS
330
2A
102
}
102
{ACAD_XDICTIONARY
360
263
102
}
330
2A
100
AcDbVisualStyle
  2
FlatWithEdges
 70
     1
 71
     2
 72
     1
 73
     1
 90
        2
 40
-0.6
 41
30.0
 62
     5
 63
     7
 74
     1
 91
        4
 64
     7
 65
   257
 75
     1
175
     1
 42
1.0
 92
        0
 66
   257
 43
1.0
 76
     1
 77
     6
 78
     2
 67
     7
 79
     5
170
     0
171
     0
290
     0
174
     0
 93
       13
 44
0.0
173
     0
291
     1
 45
0.0
1001
ACAD
1000
AcDbSavedByObjectVersion
1070
     0
  0
VISUALSTYLE
  5
2D
102
{ACAD_REACTORS
330
2A
102
}
102
{ACAD_XDICTIONARY
360
265
102
}
330
2A
100
AcDbVisualStyle
  2
Gouraud
 70
     2
 71
     2
 72
     2
 73
     1
 90
        2
 40
-0.6
 41
30.0
 62
     5
 63
     7
 74
     0
 91
        4
 64
     7
 65
   257
 75
     1
175
     1
 42
1.0
 92
        0
 66
     7
 43
1.0
 76
     1
 77
     6
 78
     2
 67
     7
 79
     5
170
     0
171
     0
290
     0
174
     0
 93
       13
 44
0.0
173
     0
291
     1
 45
0.0
1001
ACAD
1000
AcDbSavedByObjectVersion
1070
     0
  0
VISUALSTYLE
  5
2E
102
{ACAD_REACTORS
330
2A
102
}
102
{ACAD_XDICTIONARY
360
267
102
}
330
2A
100
AcDbVisualStyle
  2
GouraudWithEdges
 70
     3
 71
     2
 72
     2
 73
     1
 90
        2
 40
-0.6
 41
30.0
 62
     5
 63
     7
 74
     1
 91
        4
 64
     7
 65
   257
 75
     1
175
     1
 42
1.0
 92
        0
 66
   257
 43
1.0
 76
     1
 77
     6
 78
     2
 67
     7
 79
     5
170
     0
171
     0
290
     0
174
     0
 93
       13
 44
0.0
173
     0
291
     1
 45
0.0
1001
ACAD
1000
AcDbSavedByObjectVersion
1070
     0
  0
VISUALSTYLE
  5
38
102
{ACAD_REACTORS
330
2A
102
}
102
{ACAD_XDICTIONARY
360
27B
102
}
330
2A
100
AcDbVisualStyle
  2
Linepattern
 70
    14
 71
     2
 72
     2
 73
     0
 90
        0
 40
-0.6
 41
-30.0
 62
     5
 63
     7
 74
     1
 91
        4
 64
     7
 65
   257
 75
     7
175
     7
 42
1.0
 92
        8
 66
     7
 43
1.0
 76
     1
 77
     6
 78
     2
 67
     7
 79
     5
170
     0
171
     0
290
     0
174
     0
 93
        1
 44
0.0
173
     0
291
     1
 45
0.0
1001
ACAD
1000
AcDbSavedByObjectVersion
1070
     0
  0
VISUALSTYLE
  5
33
102
{ACAD_REACTORS
330
2A
102
}
102
{ACAD_XDICTIONARY
360
271
102
}
330
2A
100
AcDbVisualStyle
  2
Realistic
 70
     8
 71
     2
 72
     2
 73
     0
 90
        0
 40
-0.6
 41
-30.0
 62
     5
 63
     7
 74
     1
 91
        0
 64
     7
 65
   257
 75
     1
175
     1
 42
1.0
 92
        8
 66
     8
 43
1.0
 76
     1
 77
     6
 78
     2
 67
     7
 79
     5
170
     0
171
     0
290
     0
174
     0
 93
       13
 44
0.0
173
     0
291
     0
 45
0.0
1001
ACAD
1000
AcDbSavedByObjectVersion
1070
     0
  0
VISUALSTYLE
  5
37
102
{ACAD_REACTORS
330
2A
102
}
102
{ACAD_XDICTIONARY
360
279
102
}
330
2A
100
AcDbVisualStyle
  2
Thicken
 70
    13
 71
     2
 72
     2
 73
     0
 90
        0
 40
-0.6
 41
-30.0
 62
     5
 63
     7
 74
     1
 91
        4
 64
     7
 65
   257
 75
     1
175
     1
 42
1.0
 92
       12
 66
     7
 43
1.0
 76
     1
 77
     6
 78
     2
 67
     7
 79
     5
170
     0
171
     0
290
     0
174
     0
 93
        1
 44
0.0
173
     0
291
     1
 45
0.0
1001
ACAD
1000
AcDbSavedByObjectVersion
1070
     0
  0
DICTIONARYVAR
  5
25F
102
{ACAD_REACTORS
330
25C
102
}
330
25C
100
DictionaryVariables
280
     0
  1
2
  0
DICTIONARYVAR
  5
260
102
{ACAD_REACTORS
330
25C
102
}
330
25C
100
DictionaryVariables
280
     0
  1
1
  0
DICTIONARY
  5
283
330
3D
100
AcDbDictionary
280
     1
281
     1
  3
ACAD_XREC_ROUNDTRIP
360
284
  0
DICTIONARY
  5
281
330
3C
100
AcDbDictionary
280
     1
281
     1
  3
ACAD_XREC_ROUNDTRIP
360
282
  0
DICTIONARY
  5
285
330
3E
100
AcDbDictionary
280
     1
281
     1
  3
ACAD_XREC_ROUNDTRIP
360
286
  0
DICTIONARY
  5
269
330
2F
100
AcDbDictionary
280
     1
281
     1
  3
ACAD_XREC_ROUNDTRIP
360
26A
  0
DICTIONARY
  5
26D
330
31
100
AcDbDictionary
280
     1
281
     1
  3
ACAD_XREC_ROUNDTRIP
360
26E
  0
DICTIONARY
  5
26B
330
30
100
AcDbDictionary
280
     1
281
     1
  3
ACAD_XREC_ROUNDTRIP
360
26C
  0
DICTIONARY
  5
26F
330
32
100
AcDbDictionary
280
     1
281
     1
  3
ACAD_XREC_ROUNDTRIP
360
270
  0
DICTIONARY
  5
277
330
36
100
AcDbDictionary
280
     1
281
     1
  3
ACAD_XREC_ROUNDTRIP
360
278
  0
DICTIONARY
  5
27F
330
3A
100
AcDbDictionary
280
     1
281
     1
  3
ACAD_XREC_ROUNDTRIP
360
280
  0
DICTIONARY
  5
273
330
34
100
AcDbDictionary
280
     1
281
     1
  3
ACAD_XREC_ROUNDTRIP
360
274
  0
DICTIONARY
  5
275
330
35
100
AcDbDictionary
280
     1
281
     1
  3
ACAD_XREC_ROUNDTRIP
360
276
  0
DICTIONARY
  5
27D
330
39
100
AcDbDictionary
280
     1
281
     1
  3
ACAD_XREC_ROUNDTRIP
360
27E
  0
DICTIONARY
  5
261
330
2B
100
AcDbDictionary
280
     1
281
     1
  3
ACAD_XREC_ROUNDTRIP
360
262
  0
DICTIONARY
  5
263
330
2C
100
AcDbDictionary
280
     1
281
     1
  3
ACAD_XREC_ROUNDTRIP
360
264
  0
DICTIONARY
  5
265
330
2D
100
AcDbDictionary
280
     1
281
     1
  3
ACAD_XREC_ROUNDTRIP
360
266
  0
DICTIONARY
  5
267
330
2E
100
AcDbDictionary
280
     1
281
     1
  3
ACAD_XREC_ROUNDTRIP
360
268
  0
DICTIONARY
  5
27B
330
38
100
AcDbDictionary
280
     1
281
     1
  3
ACAD_XREC_ROUNDTRIP
360
27C
  0
DICTIONARY
  5
271
330
33
100
AcDbDictionary
280
     1
281
     1
  3
ACAD_XREC_ROUNDTRIP
360
272
  0
DICTIONARY
  5
279
330
37
100
AcDbDictionary
280
     1
281
     1
  3
ACAD_XREC_ROUNDTRIP
360
27A
  0
XRECORD
  5
284
102
{ACAD_REACTORS
330
283
102
}
330
283
100
AcDbXrecord
280
     1
102
MATERIAL
148
0.0
149
0.0
149
0.0
 93
        0
 94
      127
282
     0
 72
     1
 77
     1
171
     1
175
     1
179
     1
273
     0
  0
XRECORD
  5
282
102
{ACAD_REACTORS
330
281
102
}
330
281
100
AcDbXrecord
280
     1
102
MATERIAL
148
0.0
149
0.0
149
0.0
 93
        0
 94
      127
282
     0
 72
     1
 77
     1
171
     1
175
     1
179
     1
273
     0
  0
XRECORD
  5
286
102
{ACAD_REACTORS
330
285
102
}
330
285
100
AcDbXrecord
280
     1
102
MATERIAL
148
0.0
149
0.0
149
0.0
 93
        0
 94
      127
282
     0
 72
     1
 77
     1
171
     1
175
     1
179
     1
273
     0
  0
XRECORD
  5
26A
102
{ACAD_REACTORS
330
269
102
}
330
269
100
AcDbXrecord
280
     1
102
RTVSPropertyOp0
 70
     1
102
RTVSPropertyOp1
 70
     1
102
RTVSPropertyOp2
 70
     1
102
RTVSPropertyOp3
 70
     1
102
RTVSPropertyOp4
 70
     1
102
RTVSPropertyOp5
 70
     1
102
RTVSPropertyOp6
 70
     1
102
RTVSPropertyOp7
 70
     1
102
RTVSPropertyOp8
 70
     1
102
RTVSPropertyOp9
 70
     1
102
RTVSPropertyOp10
 70
     1
102
RTVSPropertyOp11
 70
     1
102
RTVSPropertyOp12
 70
     1
102
RTVSPropertyOp13
 70
     1
102
RTVSPropertyOp14
 70
     1
102
RTVSPropertyOp15
 70
     1
102
RTVSPropertyOp16
 70
     1
102
RTVSPropertyOp17
 70
     1
102
RTVSPropertyOp18
 70
     1
102
RTVSPropertyOp19
 70
     1
102
RTVSPropertyOp20
 70
     1
102
RTVSPropertyOp21
 70
     1
102
RTVSPropertyOp22
 70
     1
102
RTVSPropertyOp23
 70
     1
102
RTVSPropertyOp24
 70
     1
102
RTVSPropertyOp25
 70
     1
102
RTVSPropertyOp26
 70
     1
102
RTVSPropertyOp27
 70
     1
102
RTVSPropertyOp28
 70
     1
102
RTVSPropertyOp29
 70
     1
102
RTVSPropertyOp30
 70
     1
102
RTVSPropertyOp31
 70
     1
102
RTVSPropertyOp32
 70
     1
  0
XRECORD
  5
26E
102
{ACAD_REACTORS
330
26D
102
}
330
26D
100
AcDbXrecord
280
     1
102
RTVSPropertyOp0
 70
     1
102
RTVSPropertyOp1
 70
     1
102
RTVSPropertyOp2
 70
     1
102
RTVSPropertyOp3
 70
     1
102
RTVSPropertyOp4
 70
     1
102
RTVSPropertyOp5
 70
     1
102
RTVSPropertyOp6
 70
     1
102
RTVSPropertyOp7
 70
     1
102
RTVSPropertyOp8
 70
     1
102
RTVSPropertyOp9
 70
     1
102
RTVSPropertyOp10
 70
     1
102
RTVSPropertyOp11
 70
     1
102
RTVSPropertyOp12
 70
     1
102
RTVSPropertyOp13
 70
     1
102
RTVSPropertyOp14
 70
     1
102
RTVSPropertyOp15
 70
     1
102
RTVSPropertyOp16
 70
     1
102
RTVSPropertyOp17
 70
     1
102
RTVSPropertyOp18
 70
     1
102
RTVSPropertyOp19
 70
     1
102
RTVSPropertyOp20
 70
     1
102
RTVSPropertyOp21
 70
     1
102
RTVSPropertyOp22
 70
     1
102
RTVSPropertyOp23
 70
     1
102
RTVSPropertyOp24
 70
     1
102
RTVSPropertyOp25
 70
     1
102
RTVSPropertyOp26
 70
     1
102
RTVSPropertyOp27
 70
     1
102
RTVSPropertyOp28
 70
     1
102
RTVSPropertyOp29
 70
     1
102
RTVSPropertyOp30
 70
     1
102
RTVSPropertyOp31
 70
     1
102
RTVSPropertyOp32
 70
     1
  0
XRECORD
  5
26C
102
{ACAD_REACTORS
330
26B
102
}
330
26B
100
AcDbXrecord
280
     1
102
RTVSPropertyOp0
 70
     1
102
RTVSPropertyOp1
 70
     1
102
RTVSPropertyOp2
 70
     1
102
RTVSPropertyOp3
 70
     1
102
RTVSPropertyOp4
 70
     1
102
RTVSPropertyOp5
 70
     1
102
RTVSPropertyOp6
 70
     1
102
RTVSPropertyOp7
 70
     1
102
RTVSPropertyOp8
 70
     1
102
RTVSPropertyOp9
 70
     1
102
RTVSPropertyOp10
 70
     1
102
RTVSPropertyOp11
 70
     1
102
RTVSPropertyOp12
 70
     1
102
RTVSPropertyOp13
 70
     1
102
RTVSPropertyOp14
 70
     1
102
RTVSPropertyOp15
 70
     1
102
RTVSPropertyOp16
 70
     1
102
RTVSPropertyOp17
 70
     1
102
RTVSPropertyOp18
 70
     1
102
RTVSPropertyOp19
 70
     1
102
RTVSPropertyOp20
 70
     1
102
RTVSPropertyOp21
 70
     1
102
RTVSPropertyOp22
 70
     1
102
RTVSPropertyOp23
 70
     1
102
RTVSPropertyOp24
 70
     1
102
RTVSPropertyOp25
 70
     1
102
RTVSPropertyOp26
 70
     1
102
RTVSPropertyOp27
 70
     1
102
RTVSPropertyOp28
 70
     1
102
RTVSPropertyOp29
 70
     1
102
RTVSPropertyOp30
 70
     1
102
RTVSPropertyOp31
 70
     1
102
RTVSPropertyOp32
 70
     1
  0
XRECORD
  5
270
102
{ACAD_REACTORS
330
26F
102
}
330
26F
100
AcDbXrecord
280
     1
102
RTVSPropertyOp0
 70
     1
102
RTVSPropertyOp1
 70
     1
102
RTVSPropertyOp2
 70
     1
102
RTVSPropertyOp3
 70
     1
102
RTVSPropertyOp4
 70
     1
102
RTVSPropertyOp5
 70
     1
102
RTVSPropertyOp6
 70
     1
102
RTVSPropertyOp7
 70
     1
102
RTVSPropertyOp8
 70
     1
102
RTVSPropertyOp9
 70
     1
102
RTVSPropertyOp10
 70
     1
102
RTVSPropertyOp11
 70
     1
102
RTVSPropertyOp12
 70
     1
102
RTVSPropertyOp13
 70
     1
102
RTVSPropertyOp14
 70
     1
102
RTVSPropertyOp15
 70
     1
102
RTVSPropertyOp16
 70
     1
102
RTVSPropertyOp17
 70
     1
102
RTVSPropertyOp18
 70
     1
102
RTVSPropertyOp19
 70
     1
102
RTVSPropertyOp20
 70
     1
102
RTVSPropertyOp21
 70
     1
102
RTVSPropertyOp22
 70
     1
102
RTVSPropertyOp23
 70
     1
102
RTVSPropertyOp24
 70
     1
102
RTVSPropertyOp25
 70
     1
102
RTVSPropertyOp26
 70
     1
102
RTVSPropertyOp27
 70
     1
102
RTVSPropertyOp28
 70
     1
102
RTVSPropertyOp29
 70
     1
102
RTVSPropertyOp30
 70
     1
102
RTVSPropertyOp31
 70
     1
102
RTVSPropertyOp32
 70
     1
  0
XRECORD
  5
278
102
{ACAD_REACTORS
330
277
102
}
330
277
100
AcDbXrecord
280
     1
102
RTVSPropertyOp0
 70
     1
102
RTVSPropertyOp1
 70
     1
102
RTVSPropertyOp2
 70
     1
102
RTVSPropertyOp3
 70
     1
102
RTVSPropertyOp4
 70
     1
102
RTVSPropertyOp5
 70
     1
102
RTVSPropertyOp6
 70
     1
102
RTVSPropertyOp7
 70
     1
102
RTVSPropertyOp8
 70
     1
102
RTVSPropertyOp9
 70
     1
102
RTVSPropertyOp10
 70
     1
102
RTVSPropertyOp11
 70
     1
102
RTVSPropertyOp12
 70
     1
102
RTVSPropertyOp13
 70
     1
102
RTVSPropertyOp14
 70
     1
102
RTVSPropertyOp15
 70
     1
102
RTVSPropertyOp16
 70
     1
102
RTVSPropertyOp17
 70
     1
102
RTVSPropertyOp18
 70
     1
102
RTVSPropertyOp19
 70
     1
102
RTVSPropertyOp20
 70
     1
102
RTVSPropertyOp21
 70
     1
102
RTVSPropertyOp22
 70
     1
102
RTVSPropertyOp23
 70
     1
102
RTVSPropertyOp24
 70
     1
102
RTVSPropertyOp25
 70
     1
102
RTVSPropertyOp26
 70
     1
102
RTVSPropertyOp27
 70
     1
102
RTVSPropertyOp28
 70
     1
102
RTVSPropertyOp29
 70
     1
102
RTVSPropertyOp30
 70
     1
102
RTVSPropertyOp31
 70
     1
102
RTVSPropertyOp32
 70
     1
  0
XRECORD
  5
280
102
{ACAD_REACTORS
330
27F
102
}
330
27F
100
AcDbXrecord
280
     1
102
RTVSPropertyOp0
 70
     1
102
RTVSPropertyOp1
 70
     1
102
RTVSPropertyOp2
 70
     1
102
RTVSPropertyOp3
 70
     1
102
RTVSPropertyOp4
 70
     1
102
RTVSPropertyOp5
 70
     1
102
RTVSPropertyOp6
 70
     1
102
RTVSPropertyOp7
 70
     1
102
RTVSPropertyOp8
 70
     1
102
RTVSPropertyOp9
 70
     1
102
RTVSPropertyOp10
 70
     1
102
RTVSPropertyOp11
 70
     1
102
RTVSPropertyOp12
 70
     1
102
RTVSPropertyOp13
 70
     1
102
RTVSPropertyOp14
 70
     1
102
RTVSPropertyOp15
 70
     1
102
RTVSPropertyOp16
 70
     1
102
RTVSPropertyOp17
 70
     1
102
RTVSPropertyOp18
 70
     1
102
RTVSPropertyOp19
 70
     1
102
RTVSPropertyOp20
 70
     1
102
RTVSPropertyOp21
 70
     1
102
RTVSPropertyOp22
 70
     1
102
RTVSPropertyOp23
 70
     1
102
RTVSPropertyOp24
 70
     1
102
RTVSPropertyOp25
 70
     1
102
RTVSPropertyOp26
 70
     1
102
RTVSPropertyOp27
 70
     1
102
RTVSPropertyOp28
 70
     1
102
RTVSPropertyOp29
 70
     1
102
RTVSPropertyOp30
 70
     1
102
RTVSPropertyOp31
 70
     1
102
RTVSPropertyOp32
 70
     1
  0
XRECORD
  5
274
102
{ACAD_REACTORS
330
273
102
}
330
273
100
AcDbXrecord
280
     1
102
RTVSPropertyOp0
 70
     1
102
RTVSPropertyOp1
 70
     1
102
RTVSPropertyOp2
 70
     1
102
RTVSPropertyOp3
 70
     1
102
RTVSPropertyOp4
 70
     1
102
RTVSPropertyOp5
 70
     1
102
RTVSPropertyOp6
 70
     1
102
RTVSPropertyOp7
 70
     1
102
RTVSPropertyOp8
 70
     1
102
RTVSPropertyOp9
 70
     1
102
RTVSPropertyOp10
 70
     1
102
RTVSPropertyOp11
 70
     1
102
RTVSPropertyOp12
 70
     1
102
RTVSPropertyOp13
 70
     1
102
RTVSPropertyOp14
 70
     1
102
RTVSPropertyOp15
 70
     1
102
RTVSPropertyOp16
 70
     1
102
RTVSPropertyOp17
 70
     1
102
RTVSPropertyOp18
 70
     1
102
RTVSPropertyOp19
 70
     1
102
RTVSPropertyOp20
 70
     1
102
RTVSPropertyOp21
 70
     1
102
RTVSPropertyOp22
 70
     1
102
RTVSPropertyOp23
 70
     1
102
RTVSPropertyOp24
 70
     1
102
RTVSPropertyOp25
 70
     1
102
RTVSPropertyOp26
 70
     1
102
RTVSPropertyOp27
 70
     1
102
RTVSPropertyOp28
 70
     1
102
RTVSPropertyOp29
 70
     1
102
RTVSPropertyOp30
 70
     1
102
RTVSPropertyOp31
 70
     1
102
RTVSPropertyOp32
 70
     1
  0
XRECORD
  5
276
102
{ACAD_REACTORS
330
275
102
}
330
275
100
AcDbXrecord
280
     1
102
RTVSPropertyOp0
 70
     1
102
RTVSPropertyOp1
 70
     1
102
RTVSPropertyOp2
 70
     1
102
RTVSPropertyOp3
 70
     1
102
RTVSPropertyOp4
 70
     1
102
RTVSPropertyOp5
 70
     1
102
RTVSPropertyOp6
 70
     1
102
RTVSPropertyOp7
 70
     1
102
RTVSPropertyOp8
 70
     1
102
RTVSPropertyOp9
 70
     1
102
RTVSPropertyOp10
 70
     1
102
RTVSPropertyOp11
 70
     1
102
RTVSPropertyOp12
 70
     1
102
RTVSPropertyOp13
 70
     1
102
RTVSPropertyOp14
 70
     1
102
RTVSPropertyOp15
 70
     1
102
RTVSPropertyOp16
 70
     1
102
RTVSPropertyOp17
 70
     1
102
RTVSPropertyOp18
 70
     1
102
RTVSPropertyOp19
 70
     1
102
RTVSPropertyOp20
 70
     1
102
RTVSPropertyOp21
 70
     1
102
RTVSPropertyOp22
 70
     1
102
RTVSPropertyOp23
 70
     1
102
RTVSPropertyOp24
 70
     1
102
RTVSPropertyOp25
 70
     1
102
RTVSPropertyOp26
 70
     1
102
RTVSPropertyOp27
 70
     1
102
RTVSPropertyOp28
 70
     1
102
RTVSPropertyOp29
 70
     1
102
RTVSPropertyOp30
 70
     1
102
RTVSPropertyOp31
 70
     1
102
RTVSPropertyOp32
 70
     1
  0
XRECORD
  5
27E
102
{ACAD_REACTORS
330
27D
102
}
330
27D
100
AcDbXrecord
280
     1
102
RTVSPropertyOp0
 70
     1
102
RTVSPropertyOp1
 70
     1
102
RTVSPropertyOp2
 70
     1
102
RTVSPropertyOp3
 70
     1
102
RTVSPropertyOp4
 70
     1
102
RTVSPropertyOp5
 70
     1
102
RTVSPropertyOp6
 70
     1
102
RTVSPropertyOp7
 70
     1
102
RTVSPropertyOp8
 70
     1
102
RTVSPropertyOp9
 70
     1
102
RTVSPropertyOp10
 70
     1
102
RTVSPropertyOp11
 70
     1
102
RTVSPropertyOp12
 70
     1
102
RTVSPropertyOp13
 70
     1
102
RTVSPropertyOp14
 70
     1
102
RTVSPropertyOp15
 70
     1
102
RTVSPropertyOp16
 70
     1
102
RTVSPropertyOp17
 70
     1
102
RTVSPropertyOp18
 70
     1
102
RTVSPropertyOp19
 70
     1
102
RTVSPropertyOp20
 70
     1
102
RTVSPropertyOp21
 70
     1
102
RTVSPropertyOp22
 70
     1
102
RTVSPropertyOp23
 70
     1
102
RTVSPropertyOp24
 70
     1
102
RTVSPropertyOp25
 70
     1
102
RTVSPropertyOp26
 70
     1
102
RTVSPropertyOp27
 70
     1
102
RTVSPropertyOp28
 70
     1
102
RTVSPropertyOp29
 70
     1
102
RTVSPropertyOp30
 70
     1
102
RTVSPropertyOp31
 70
     1
102
RTVSPropertyOp32
 70
     1
  0
XRECORD
  5
262
102
{ACAD_REACTORS
330
261
102
}
330
261
100
AcDbXrecord
280
     1
102
RTVSPropertyOp0
 70
     1
102
RTVSPropertyOp1
 70
     1
102
RTVSPropertyOp2
 70
     1
102
RTVSPropertyOp3
 70
     1
102
RTVSPropertyOp4
 70
     1
102
RTVSPropertyOp5
 70
     1
102
RTVSPropertyOp6
 70
     1
102
RTVSPropertyOp7
 70
     1
102
RTVSPropertyOp8
 70
     1
102
RTVSPropertyOp9
 70
     1
102
RTVSPropertyOp10
 70
     1
102
RTVSPropertyOp11
 70
     1
102
RTVSPropertyOp12
 70
     1
102
RTVSPropertyOp13
 70
     1
102
RTVSPropertyOp14
 70
     1
102
RTVSPropertyOp15
 70
     1
102
RTVSPropertyOp16
 70
     1
102
RTVSPropertyOp17
 70
     1
102
RTVSPropertyOp18
 70
     1
102
RTVSPropertyOp19
 70
     1
102
RTVSPropertyOp20
 70
     1
102
RTVSPropertyOp21
 70
     1
102
RTVSPropertyOp22
 70
     1
102
RTVSPropertyOp23
 70
     1
102
RTVSPropertyOp24
 70
     1
102
RTVSPropertyOp25
 70
     1
102
RTVSPropertyOp26
 70
     1
102
RTVSPropertyOp27
 70
     1
102
RTVSPropertyOp28
 70
     1
102
RTVSPropertyOp29
 70
     1
102
RTVSPropertyOp30
 70
     1
102
RTVSPropertyOp31
 70
     1
102
RTVSPropertyOp32
 70
     1
  0
XRECORD
  5
264
102
{ACAD_REACTORS
330
263
102
}
330
263
100
AcDbXrecord
280
     1
102
RTVSPropertyOp0
 70
     1
102
RTVSPropertyOp1
 70
     1
102
RTVSPropertyOp2
 70
     1
102
RTVSPropertyOp3
 70
     1
102
RTVSPropertyOp4
 70
     1
102
RTVSPropertyOp5
 70
     1
102
RTVSPropertyOp6
 70
     1
102
RTVSPropertyOp7
 70
     1
102
RTVSPropertyOp8
 70
     1
102
RTVSPropertyOp9
 70
     1
102
RTVSPropertyOp10
 70
     1
102
RTVSPropertyOp11
 70
     1
102
RTVSPropertyOp12
 70
     1
102
RTVSPropertyOp13
 70
     1
102
RTVSPropertyOp14
 70
     1
102
RTVSPropertyOp15
 70
     1
102
RTVSPropertyOp16
 70
     1
102
RTVSPropertyOp17
 70
     1
102
RTVSPropertyOp18
 70
     1
102
RTVSPropertyOp19
 70
     1
102
RTVSPropertyOp20
 70
     1
102
RTVSPropertyOp21
 70
     1
102
RTVSPropertyOp22
 70
     1
102
RTVSPropertyOp23
 70
     1
102
RTVSPropertyOp24
 70
     1
102
RTVSPropertyOp25
 70
     1
102
RTVSPropertyOp26
 70
     1
102
RTVSPropertyOp27
 70
     1
102
RTVSPropertyOp28
 70
     1
102
RTVSPropertyOp29
 70
     1
102
RTVSPropertyOp30
 70
     1
102
RTVSPropertyOp31
 70
     1
102
RTVSPropertyOp32
 70
     1
  0
XRECORD
  5
266
102
{ACAD_REACTORS
330
265
102
}
330
265
100
AcDbXrecord
280
     1
102
RTVSPropertyOp0
 70
     1
102
RTVSPropertyOp1
 70
     1
102
RTVSPropertyOp2
 70
     1
102
RTVSPropertyOp3
 70
     1
102
RTVSPropertyOp4
 70
     1
102
RTVSPropertyOp5
 70
     1
102
RTVSPropertyOp6
 70
     1
102
RTVSPropertyOp7
 70
     1
102
RTVSPropertyOp8
 70
     1
102
RTVSPropertyOp9
 70
     1
102
RTVSPropertyOp10
 70
     1
102
RTVSPropertyOp11
 70
     1
102
RTVSPropertyOp12
 70
     1
102
RTVSPropertyOp13
 70
     1
102
RTVSPropertyOp14
 70
     1
102
RTVSPropertyOp15
 70
     1
102
RTVSPropertyOp16
 70
     1
102
RTVSPropertyOp17
 70
     1
102
RTVSPropertyOp18
 70
     1
102
RTVSPropertyOp19
 70
     1
102
RTVSPropertyOp20
 70
     1
102
RTVSPropertyOp21
 70
     1
102
RTVSPropertyOp22
 70
     1
102
RTVSPropertyOp23
 70
     1
102
RTVSPropertyOp24
 70
     1
102
RTVSPropertyOp25
 70
     1
102
RTVSPropertyOp26
 70
     1
102
RTVSPropertyOp27
 70
     1
102
RTVSPropertyOp28
 70
     1
102
RTVSPropertyOp29
 70
     1
102
RTVSPropertyOp30
 70
     1
102
RTVSPropertyOp31
 70
     1
102
RTVSPropertyOp32
 70
     1
  0
XRECORD
  5
268
102
{ACAD_REACTORS
330
267
102
}
330
267
100
AcDbXrecord
280
     1
102
RTVSPropertyOp0
 70
     1
102
RTVSPropertyOp1
 70
     1
102
RTVSPropertyOp2
 70
     1
102
RTVSPropertyOp3
 70
     1
102
RTVSPropertyOp4
 70
     1
102
RTVSPropertyOp5
 70
     1
102
RTVSPropertyOp6
 70
     1
102
RTVSPropertyOp7
 70
     1
102
RTVSPropertyOp8
 70
     1
102
RTVSPropertyOp9
 70
     1
102
RTVSPropertyOp10
 70
     1
102
RTVSPropertyOp11
 70
     1
102
RTVSPropertyOp12
 70
     1
102
RTVSPropertyOp13
 70
     1
102
RTVSPropertyOp14
 70
     1
102
RTVSPropertyOp15
 70
     1
102
RTVSPropertyOp16
 70
     1
102
RTVSPropertyOp17
 70
     1
102
RTVSPropertyOp18
 70
     1
102
RTVSPropertyOp19
 70
     1
102
RTVSPropertyOp20
 70
     1
102
RTVSPropertyOp21
 70
     1
102
RTVSPropertyOp22
 70
     1
102
RTVSPropertyOp23
 70
     1
102
RTVSPropertyOp24
 70
     1
102
RTVSPropertyOp25
 70
     1
102
RTVSPropertyOp26
 70
     1
102
RTVSPropertyOp27
 70
     1
102
RTVSPropertyOp28
 70
     1
102
RTVSPropertyOp29
 70
     1
102
RTVSPropertyOp30
 70
     1
102
RTVSPropertyOp31
 70
     1
102
RTVSPropertyOp32
 70
     1
  0
XRECORD
  5
27C
102
{ACAD_REACTORS
330
27B
102
}
330
27B
100
AcDbXrecord
280
     1
102
RTVSPropertyOp0
 70
     1
102
RTVSPropertyOp1
 70
     1
102
RTVSPropertyOp2
 70
     1
102
RTVSPropertyOp3
 70
     1
102
RTVSPropertyOp4
 70
     1
102
RTVSPropertyOp5
 70
     1
102
RTVSPropertyOp6
 70
     1
102
RTVSPropertyOp7
 70
     1
102
RTVSPropertyOp8
 70
     1
102
RTVSPropertyOp9
 70
     1
102
RTVSPropertyOp10
 70
     1
102
RTVSPropertyOp11
 70
     1
102
RTVSPropertyOp12
 70
     1
102
RTVSPropertyOp13
 70
     1
102
RTVSPropertyOp14
 70
     1
102
RTVSPropertyOp15
 70
     1
102
RTVSPropertyOp16
 70
     1
102
RTVSPropertyOp17
 70
     1
102
RTVSPropertyOp18
 70
     1
102
RTVSPropertyOp19
 70
     1
102
RTVSPropertyOp20
 70
     1
102
RTVSPropertyOp21
 70
     1
102
RTVSPropertyOp22
 70
     1
102
RTVSPropertyOp23
 70
     1
102
RTVSPropertyOp24
 70
     1
102
RTVSPropertyOp25
 70
     1
102
RTVSPropertyOp26
 70
     1
102
RTVSPropertyOp27
 70
     1
102
RTVSPropertyOp28
 70
     1
102
RTVSPropertyOp29
 70
     1
102
RTVSPropertyOp30
 70
     1
102
RTVSPropertyOp31
 70
     1
102
RTVSPropertyOp32
 70
     1
  0
XRECORD
  5
272
102
{ACAD_REACTORS
330
271
102
}
330
271
100
AcDbXrecord
280
     1
102
RTVSPropertyOp0
 70
     1
102
RTVSPropertyOp1
 70
     1
102
RTVSPropertyOp2
 70
     1
102
RTVSPropertyOp3
 70
     1
102
RTVSPropertyOp4
 70
     1
102
RTVSPropertyOp5
 70
     1
102
RTVSPropertyOp6
 70
     1
102
RTVSPropertyOp7
 70
     1
102
RTVSPropertyOp8
 70
     1
102
RTVSPropertyOp9
 70
     1
102
RTVSPropertyOp10
 70
     1
102
RTVSPropertyOp11
 70
     1
102
RTVSPropertyOp12
 70
     1
102
RTVSPropertyOp13
 70
     1
102
RTVSPropertyOp14
 70
     1
102
RTVSPropertyOp15
 70
     1
102
RTVSPropertyOp16
 70
     1
102
RTVSPropertyOp17
 70
     1
102
RTVSPropertyOp18
 70
     1
102
RTVSPropertyOp19
 70
     1
102
RTVSPropertyOp20
 70
     1
102
RTVSPropertyOp21
 70
     1
102
RTVSPropertyOp22
 70
     1
102
RTVSPropertyOp23
 70
     1
102
RTVSPropertyOp24
 70
     1
102
RTVSPropertyOp25
 70
     1
102
RTVSPropertyOp26
 70
     1
102
RTVSPropertyOp27
 70
     1
102
RTVSPropertyOp28
 70
     1
102
RTVSPropertyOp29
 70
     1
102
RTVSPropertyOp30
 70
     1
102
RTVSPropertyOp31
 70
     1
102
RTVSPropertyOp32
 70
     1
  0
XRECORD
  5
27A
102
{ACAD_REACTORS
330
279
102
}
330
279
100
AcDbXrecord
280
     1
102
RTVSPropertyOp0
 70
     1
102
RTVSPropertyOp1
 70
     1
102
RTVSPropertyOp2
 70
     1
102
RTVSPropertyOp3
 70
     1
102
RTVSPropertyOp4
 70
     1
102
RTVSPropertyOp5
 70
     1
102
RTVSPropertyOp6
 70
     1
102
RTVSPropertyOp7
 70
     1
102
RTVSPropertyOp8
 70
     1
102
RTVSPropertyOp9
 70
     1
102
RTVSPropertyOp10
 70
     1
102
RTVSPropertyOp11
 70
     1
102
RTVSPropertyOp12
 70
     1
102
RTVSPropertyOp13
 70
     1
102
RTVSPropertyOp14
 70
     1
102
RTVSPropertyOp15
 70
     1
102
RTVSPropertyOp16
 70
     1
102
RTVSPropertyOp17
 70
     1
102
RTVSPropertyOp18
 70
     1
102
RTVSPropertyOp19
 70
     1
102
RTVSPropertyOp20
 70
     1
102
RTVSPropertyOp21
 70
     1
102
RTVSPropertyOp22
 70
     1
102
RTVSPropertyOp23
 70
     1
102
RTVSPropertyOp24
 70
     1
102
RTVSPropertyOp25
 70
     1
102
RTVSPropertyOp26
 70
     1
102
RTVSPropertyOp27
 70
     1
102
RTVSPropertyOp28
 70
     1
102
RTVSPropertyOp29
 70
     1
102
RTVSPropertyOp30
 70
     1
102
RTVSPropertyOp31
 70
     1
102
RTVSPropertyOp32
 70
     1
  0
ENDSEC
  0
EOF
